<?xml version="1.0" standalone="no"?>
<!DOCTYPE svg PUBLIC "-//W3C//DTD SVG 1.1//EN" "http://www.w3.org/Graphics/SVG/1.1/DTD/svg11.dtd" >
<svg xmlns="http://www.w3.org/2000/svg">
<metadata>
This is a custom SVG webfont generated by Font Squirrel.
Copyright   : C 2008 2009 2010 2011 Andrey V Panov
Designer    : Andrey V Panov
Foundry     : Andrey V Panov
Foundry URL : httpcodegooglecompistok
</metadata>
<defs>
<font id="IstokWebItalic" horiz-adv-x="1110" >
<font-face units-per-em="2048" ascent="1638" descent="-410" />
<missing-glyph horiz-adv-x="682" />
<glyph unicode=" "  horiz-adv-x="682" />
<glyph unicode="&#x09;" horiz-adv-x="682" />
<glyph unicode="&#xa0;" horiz-adv-x="682" />
<glyph unicode="!" horiz-adv-x="600" d="M89 45l29 122q10 45 55 45h112q37 0 37 -30q0 -7 -2 -15l-29 -122q-10 -45 -55 -45h-112q-37 0 -37 30q0 7 2 15zM199 435l197 944q11 55 63 55h104q40 0 40 -35q0 -9 -3 -20l-239 -944q-11 -45 -55 -45h-72q-37 0 -37 30q0 7 2 15z" />
<glyph unicode="&#x22;" horiz-adv-x="828" d="M253 869l104 545q11 55 49 55h104q27 0 27 -28q0 -11 -4 -27l-146 -545q-13 -45 -46 -45h-64q-26 0 -26 28q0 7 2 17zM603 869l104 545q11 55 49 55h104q27 0 27 -28q0 -11 -4 -27l-146 -545q-13 -45 -46 -45h-64q-26 0 -26 28q0 7 2 17z" />
<glyph unicode="#" horiz-adv-x="1390" d="M126 410l9 50q6 35 51 35h215l76 432h-215q-44 0 -38 35l8 50q6 35 52 35h215l58 330q8 45 43 45h62q35 0 27 -45l-58 -330h336l58 330q8 45 43 45h62q35 0 27 -45l-58 -330h215q39 0 39 -27q0 -4 -1 -8l-8 -50q-6 -35 -52 -35h-215l-76 -432h215q45 0 39 -35l-9 -50 q-6 -35 -51 -35h-215l-58 -330q-8 -45 -43 -45h-62q-35 0 -27 45l58 330h-336l-58 -330q-8 -45 -43 -45h-62q-35 0 -27 45l58 330h-215q-40 0 -40 27q0 4 1 8zM533 495h336l76 432h-336z" />
<glyph unicode="$" d="M34 185l44 51q13 16 31 16q24 0 55 -30q70 -66 129 -81t121 -19l125 541q-40 22 -86 51q-55 34 -94 77t-67.5 105t-28.5 173q0 161 98.5 248t184.5 108.5t175 25.5l28 120q10 45 45 45h50q35 0 25 -45l-29 -125q56 -8 123 -36t106 -67q28 -28 28 -52q0 -15 -11 -28 l-48 -59q-12 -15 -27 -15q-17 0 -37 19q-41 38 -93.5 56.5t-76.5 24.5l-117 -505q63 -30 125 -74q52 -37 85.5 -75.5t57.5 -99t24 -150.5q0 -141 -97.5 -244t-192 -134t-190.5 -36l-31 -136q-10 -45 -45 -45h-50q-35 0 -25 45l32 137q-108 7 -187 37.5t-139 89.5 q-32 31 -32 57q0 15 12 29zM449 1084q0 -58 14 -112.5t71 -99.5q22 -17 46 -33l107 462q-93 -6 -165.5 -64t-72.5 -153zM535 125q75 14 161.5 81.5t86.5 175.5q0 50 -13.5 103t-83.5 97q-19 13 -40 24z" />
<glyph unicode="%" horiz-adv-x="1782" d="M121 1052q0 168 113 311.5t262 143.5q143 0 199 -86.5t56 -228.5q0 -168 -113 -311.5t-262 -143.5q-143 0 -199 86.5t-56 228.5zM191 -40q-13 11 -13 25t15 31l1280 1496q17 21 34 21q11 0 22 -9l38 -33q25 -22 -4 -56l-1278 -1497q-19 -21 -36 -21q-11 0 -22 9z M281 1032q0 -80 20 -130t85 -50q80 0 142.5 110t62.5 250q0 80 -20 130t-85 50q-80 0 -142.5 -110t-62.5 -250zM1006 258q0 168 113 311.5t262 143.5q143 0 199 -86.5t56 -228.5q0 -168 -113 -311.5t-262 -143.5q-143 0 -199 86.5t-56 228.5zM1166 238q0 -80 20 -130t85 -50 q80 0 142.5 110t62.5 250q0 80 -20 130t-85 50q-80 0 -142.5 -110t-62.5 -250z" />
<glyph unicode="&#x26;" horiz-adv-x="1354" d="M71 290q0 103 91.5 238t334.5 289q-25 51 -60.5 139.5t-35.5 200.5q0 120 87 213.5t281 93.5q106 0 202 -64t96 -221q0 -95 -101.5 -196t-246.5 -190l235 -387q49 42 109.5 124t80.5 129q14 33 37 33q8 0 17 -4l67 -30q29 -13 29 -36q0 -10 -5 -21q-38 -87 -121 -181.5 t-138 -139.5l135 -222q12 -20 12 -33q0 -25 -43 -25h-81q-58 0 -84 43l-80 130q-114 -91 -200.5 -147t-239.5 -56q-172 0 -275 77t-103 243zM266 307q0 -92 47.5 -142t169.5 -50q92 0 171 53t162 125l-245 405q-153 -92 -229 -196.5t-76 -194.5zM581 1143q0 -91 19.5 -140 t43.5 -92q132 89 187.5 155t55.5 129q0 56 -35 93t-109 37q-66 0 -114 -44.5t-48 -137.5z" />
<glyph unicode="'" horiz-adv-x="478" d="M253 869l104 545q11 55 49 55h104q27 0 27 -28q0 -11 -4 -27l-146 -545q-13 -45 -46 -45h-64q-26 0 -26 28q0 7 2 17z" />
<glyph unicode="(" horiz-adv-x="670" d="M90 316q0 287 151.5 588.5t472.5 592.5q43 39 70 14l32 -30q28 -26 -7 -58q-122 -109 -322.5 -431.5t-200.5 -705.5q0 -241 31 -397t73 -232q23 -41 -4 -59l-37 -24q-30 -19 -66 26q-94 118 -143.5 332t-49.5 384z" />
<glyph unicode=")" horiz-adv-x="670" d="M-135 -393q-28 26 7 58q122 109 322.5 431.5t200.5 705.5q0 241 -31 397t-73 232q-23 41 4 59l37 24q30 19 66 -26q94 -118 143.5 -332t49.5 -384q0 -287 -151.5 -588.5t-472.5 -592.5q-43 -39 -70 -14z" />
<glyph unicode="*" horiz-adv-x="940" d="M193 859q-5 15 -5 28q0 50 71 78l235 92l-193 93q-41 20 -41 51q0 24 25 55l8 10q32 40 66 40q25 0 50 -23l155 -139l27 232q10 88 91 88h12q59 0 59 -47q0 -17 -8 -41l-81 -232l219 139q36 23 61 23q33 0 47 -40l4 -10q5 -15 5 -29q0 -50 -71 -77l-235 -93l193 -92 q41 -20 41 -51q0 -24 -25 -55l-8 -10q-33 -40 -66 -40q-25 0 -50 22l-155 140l-26 -232q-11 -88 -92 -88h-12q-59 0 -59 46q0 18 9 42l80 232l-219 -140q-35 -22 -60 -22q-34 0 -48 40z" />
<glyph unicode="+" horiz-adv-x="1280" d="M127 700v50q0 35 45 35h454v454q0 45 35 45h50q35 0 35 -45v-454h456q45 0 45 -35v-50q0 -35 -45 -35h-456v-456q0 -45 -35 -45h-50q-35 0 -35 45v456h-454q-45 0 -45 35z" />
<glyph unicode="," horiz-adv-x="600" d="M35 -241q-5 5 -5 11q0 11 18 24q35 26 74 88.5t52 117.5h-52q-37 0 -37 29q0 7 2 16l29 122q11 45 55 45h116q37 0 37 -29q0 -7 -2 -16l-29 -122q-30 -127 -67.5 -192t-115.5 -127q-16 -12 -26 -12q-7 0 -12 5z" />
<glyph unicode="-" horiz-adv-x="680" d="M56 518l16 70q8 35 53 35h478q38 0 38 -25q0 -5 -1 -10l-16 -70q-8 -35 -53 -35h-478q-38 0 -38 25q0 5 1 10z" />
<glyph unicode="." horiz-adv-x="600" d="M89 45l29 122q10 45 55 45h112q37 0 37 -30q0 -7 -2 -15l-29 -122q-10 -45 -55 -45h-112q-37 0 -37 30q0 7 2 15z" />
<glyph unicode="/" horiz-adv-x="840" d="M-192 -332l1124 1771q20 32 42 32q7 0 15 -4l47 -24q15 -7 15 -22q0 -13 -13 -33l-1124 -1771q-20 -32 -41 -32q-7 0 -14 3l-47 24q-16 8 -16 24q0 13 12 32z" />
<glyph unicode="0" d="M104 440q0 365 144 688.5t469 323.5q190 0 278.5 -135t88.5 -335q0 -365 -144 -688.5t-469 -323.5q-190 0 -278.5 135t-88.5 335zM290 410q0 -100 44 -198t149 -98q195 0 305 274t110 624q0 100 -44 198t-149 98q-195 0 -305 -274t-110 -624z" />
<glyph unicode="1" horiz-adv-x="827" d="M302 1148q-11 30 35 46q70 24 163 92t144 118q37 36 64 36h85q46 0 36 -45l-312 -1350q-10 -45 -55 -45h-86q-45 0 -35 45l248 1074q3 14 16 60h-4q-34 -40 -106.5 -79t-118.5 -52q-34 -10 -45 20z" />
<glyph unicode="2" d="M-16 45l11 48q9 38 50 72l483 395q215 176 307 294t92 247q0 78 -51 139.5t-172 61.5q-125 0 -203 -72t-120 -173q-17 -42 -45 -42q-9 0 -18 4l-75 29q-19 7 -19 34q0 21 11 52q41 120 170 219t301 99q212 0 314.5 -94.5t102.5 -253.5q0 -195 -133.5 -333t-320.5 -286 l-403 -319l-1 -4q41 2 81 2h531q46 0 46 -32q0 -6 -2 -13l-17 -74q-10 -45 -65 -45h-810q-47 0 -47 32q0 6 2 13z" />
<glyph unicode="3" d="M30 224l57 58q11 12 24 12q24 0 55 -37q56 -65 129.5 -101t149.5 -36q146 0 249 92t103 229q0 129 -51 192t-165 63h-108q-46 0 -38 33l17 74q8 35 53 35h71q132 0 232.5 92.5t100.5 200.5q0 81 -57 126t-163 45q-98 0 -174.5 -45t-115.5 -87q-23 -25 -43 -25 q-16 0 -30 16l-54 62q-9 10 -9 22q0 25 39 58q70 59 176.5 104t223.5 45q198 0 296.5 -90t98.5 -244q0 -126 -115 -227.5t-211 -112.5l-1 -4q100 -27 161.5 -117t61.5 -230q0 -151 -138 -304t-424 -153q-152 0 -248.5 57t-143.5 121q-21 28 -21 49q0 15 12 27z" />
<glyph unicode="4" d="M36 399l20 88q8 32 40 69l745 848q31 36 64 36h91q38 0 38 -30q0 -7 -2 -15l-202 -877h171q36 0 36 -29q0 -7 -2 -16l-17 -74q-10 -45 -54 -45h-172l-72 -309q-10 -45 -55 -45h-86q-37 0 -37 30q0 7 2 15l72 309h-545q-37 0 -37 30q0 7 2 15zM255 518h399l127 555 q7 30 16 60h-2z" />
<glyph unicode="5" d="M46 245l67 49q12 9 24 9q25 0 52 -40q24 -36 88.5 -89.5t191.5 -53.5q149 0 240.5 108t91.5 273q0 129 -55.5 182t-167.5 53q-47 0 -95.5 -13.5t-126.5 -64.5q-50 -33 -88 -33h-47q-36 0 -36 30q0 7 2 15l163 707q10 45 55 45h690q37 0 37 -30q0 -7 -2 -15l-17 -74 q-10 -45 -56 -45h-559l-91 -395q-5 -24 -16 -60h4q45 43 114.5 63t123.5 20q207 0 285.5 -114.5t78.5 -291.5q0 -219 -152 -364.5t-385 -145.5q-178 0 -275.5 68.5t-135.5 130.5q-18 28 -18 47q0 18 15 29z" />
<glyph unicode="6" d="M116 449q0 415 179 709t495 294q102 0 185.5 -34t131.5 -89q24 -27 24 -46q0 -12 -10 -20l-62 -50q-15 -13 -30 -13q-21 0 -42 26q-27 34 -85 55t-134 21q-156 0 -280.5 -157.5t-179.5 -401.5h2q57 78 152.5 117t185.5 39q168 0 270 -98.5t102 -290.5 q0 -207 -136.5 -373.5t-370.5 -166.5q-189 0 -293 127.5t-104 351.5zM305 384q0 -123 56 -193.5t159 -70.5q125 0 214.5 129t89.5 275q0 106 -59 164t-159 58q-132 0 -216.5 -120.5t-84.5 -241.5z" />
<glyph unicode="7" horiz-adv-x="1100" d="M242 39l14 59q90 381 282 645.5t453 514.5l1 2q-31 -2 -61 -2h-628q-36 0 -36 29q0 7 2 16l17 74q10 45 55 45h834q37 0 37 -30q0 -7 -2 -15l-16 -69q-8 -31 -53 -72q-252 -227 -438 -509t-258 -594l-22 -94q-10 -45 -55 -45h-91q-37 0 -37 30q0 7 2 15z" />
<glyph unicode="8" d="M57 350q0 160 117 278.5t229 143.5v3q-76 48 -112 112t-36 161q0 165 135 284.5t337 119.5q205 0 297.5 -93t92.5 -231q0 -158 -110 -253t-204 -109v-2q94 -35 140.5 -116t46.5 -188q0 -202 -148.5 -346t-368.5 -144q-194 0 -305 96t-111 284zM252 356q0 -113 54 -174.5 t178 -61.5q131 0 220.5 96t89.5 230q0 94 -41.5 166t-151.5 72q-148 0 -248.5 -99t-100.5 -229zM443 1068q0 -129 50 -175.5t121 -46.5q124 0 219.5 75t95.5 187q0 88 -50.5 141t-162.5 53q-114 0 -193.5 -78t-79.5 -156z" />
<glyph unicode="9" d="M78 159l62 50q15 13 30 13q21 0 42 -26q27 -34 85 -55t134 -21q156 0 280.5 157.5t179.5 401.5h-2q-57 -78 -152.5 -117t-185.5 -39q-168 0 -270 98.5t-102 290.5q0 207 136.5 373.5t370.5 166.5q189 0 293 -127.5t104 -351.5q0 -415 -179 -709t-495 -294 q-102 0 -185.5 34t-131.5 89q-24 27 -24 46q0 12 10 20zM375 898q0 -106 59 -164t159 -58q132 0 216.5 120.5t84.5 241.5q0 123 -56 193.5t-159 70.5q-125 0 -214.5 -129t-89.5 -275z" />
<glyph unicode=":" horiz-adv-x="600" d="M89 45l29 122q10 45 55 45h112q37 0 37 -30q0 -7 -2 -15l-29 -122q-10 -45 -55 -45h-112q-37 0 -37 30q0 7 2 15zM282 883l29 122q10 45 55 45h112q37 0 37 -30q0 -7 -2 -15l-29 -122q-10 -45 -55 -45h-112q-37 0 -37 30q0 7 2 15z" />
<glyph unicode=";" horiz-adv-x="600" d="M35 -241q-5 5 -5 11q0 11 18 24q35 26 74 88.5t52 117.5h-52q-37 0 -37 29q0 7 2 16l29 122q11 45 55 45h116q37 0 37 -29q0 -7 -2 -16l-29 -122q-30 -127 -67.5 -192t-115.5 -127q-16 -12 -26 -12q-7 0 -12 5zM282 883l29 122q10 45 55 45h112q37 0 37 -30q0 -7 -2 -15 l-29 -122q-10 -45 -55 -45h-112q-37 0 -37 30q0 7 2 15z" />
<glyph unicode="&#x3c;" horiz-adv-x="1280" d="M152 719v32q0 20 25 34l952 550q17 10 29 10q18 0 28 -18l25 -43q6 -9 6 -18q0 -19 -28 -35l-859 -495v-2l859 -495q28 -16 28 -35q0 -9 -6 -18l-25 -43q-10 -18 -28 -18q-12 0 -29 10l-952 550q-25 14 -25 34z" />
<glyph unicode="=" horiz-adv-x="1280" d="M127 530v50q0 35 45 35h1030q45 0 45 -35v-50q0 -35 -45 -35h-1030q-45 0 -45 35zM127 870v50q0 35 45 35h1030q45 0 45 -35v-50q0 -35 -45 -35h-1030q-45 0 -45 35z" />
<glyph unicode="&#x3e;" horiz-adv-x="1280" d="M163 186q-18 30 22 53l859 495v2l-859 495q-40 23 -22 53l25 43q18 31 57 8l952 -550q25 -14 25 -34v-32q0 -20 -25 -34l-952 -550q-39 -23 -57 8z" />
<glyph unicode="?" horiz-adv-x="1016" d="M251 1170q-16 9 -16 29q0 22 20 57q42 73 147 140.5t268 67.5q198 0 287.5 -81t89.5 -250q0 -159 -231 -365t-258 -330l-5 -23q-10 -45 -56 -45h-86q-36 0 -36 30q0 7 2 15l8 37q38 176 252 373.5t214 318.5q0 98 -53.5 134t-133.5 36q-88 0 -167.5 -51t-106.5 -104 q-19 -36 -44 -36q-11 0 -24 7zM277 45l29 122q10 45 55 45h112q37 0 37 -30q0 -7 -2 -15l-29 -122q-10 -45 -55 -45h-112q-37 0 -37 30q0 7 2 15z" />
<glyph unicode="@" horiz-adv-x="1992" d="M120 551q0 381 260 651.5t680 270.5q306 0 559 -178.5t253 -578.5q0 -294 -141 -449.5t-371 -155.5q-130 0 -166 57t-36 164h-2q-38 -89 -130 -155t-183 -66q-134 0 -215.5 96t-81.5 260q0 206 131.5 390.5t328.5 184.5q191 0 235 -176h4l23 106q7 34 42 34h110 q35 0 27 -35l-131 -591q-10 -45 -10 -75q0 -35 14 -49q26 -25 71 -25q146 0 252.5 111.5t106.5 373.5q0 304 -194 470.5t-494 166.5q-342 0 -581 -218.5t-239 -598.5q0 -332 228.5 -540t549.5 -208q150 0 302.5 54.5t283.5 160.5q27 22 43 0l39 -54q17 -24 -10 -42 q-163 -115 -322.5 -177t-344.5 -62q-359 0 -625 238t-266 645zM717 447q0 -123 44.5 -169.5t123.5 -46.5q101 0 188.5 142.5t103.5 208.5q15 64 15 145q0 69 -41 133t-121 64q-134 0 -223.5 -144t-89.5 -333z" />
<glyph unicode="A" horiz-adv-x="1360" d="M-59 66l770 1307q36 61 80 61h140q41 0 52 -61l226 -1307q2 -11 2 -21q0 -45 -44 -45h-91q-53 0 -61 49l-57 331h-615l-195 -331q-29 -49 -83 -49h-112q-29 0 -29 21q0 16 17 45zM441 544h488l-70 400q-13 72 -21 157.5t-8 159.5h-4q-18 -71 -56 -145t-95 -172z" />
<glyph unicode="B" horiz-adv-x="1338" d="M63 55l305 1324q13 55 63 55h370q273 0 379 -100.5t106 -249.5q0 -139 -95.5 -221.5t-237.5 -112.5v-3q103 -21 183.5 -100.5t80.5 -215.5q0 -167 -151 -299t-496 -132h-470q-40 0 -40 35q0 9 3 20zM280 164h296q210 0 323 71t113 204q0 121 -102.5 173t-278.5 52h-236z M429 808h271q142 0 266.5 76t124.5 192q0 103 -73 148.5t-252 45.5h-231z" />
<glyph unicode="C" horiz-adv-x="1392" d="M110 580q0 395 210.5 639.5t587.5 244.5q184 0 298 -64t161 -170q23 -53 -23 -80l-78 -46q-27 -16 -52 28q-30 54 -109 115t-214 61q-250 0 -413 -183t-163 -568q0 -182 96 -306.5t326 -124.5q136 0 230.5 71.5t146.5 143.5q42 58 78 35l90 -58q33 -21 -8 -80 q-79 -115 -213 -191.5t-351 -76.5q-302 0 -451 172.5t-149 437.5z" />
<glyph unicode="D" horiz-adv-x="1406" d="M63 55l305 1324q13 55 63 55h319q358 0 496 -175t138 -411q0 -340 -210 -594t-655 -254h-419q-40 0 -40 35q0 9 3 20zM280 164h268q332 0 481.5 212t149.5 484q0 172 -81.5 292t-393.5 120h-168z" />
<glyph unicode="E" horiz-adv-x="1270" d="M63 55l305 1324q13 55 63 55h875q47 0 47 -32q0 -6 -2 -13l-17 -74q-11 -45 -66 -45h-733l-102 -444h673q46 0 46 -31q0 -6 -2 -14l-17 -74q-10 -45 -65 -45h-673l-115 -498h763q46 0 46 -31q0 -6 -2 -14l-17 -74q-10 -45 -65 -45h-905q-40 0 -40 35q0 9 3 20z" />
<glyph unicode="F" horiz-adv-x="1166" d="M63 55l305 1324q13 55 63 55h815q47 0 47 -32q0 -6 -2 -13l-17 -74q-11 -45 -66 -45h-673l-109 -474h587q46 0 46 -31q0 -6 -2 -14l-17 -74q-10 -45 -65 -45h-587l-133 -577q-13 -55 -63 -55h-92q-40 0 -40 35q0 9 3 20z" />
<glyph unicode="G" horiz-adv-x="1470" d="M110 580q0 395 210.5 639.5t595.5 244.5q194 0 308 -66t158 -150q26 -51 -19 -81l-76 -50q-28 -19 -53 25q-25 43 -109 104.5t-226 61.5q-257 0 -420.5 -183t-163.5 -568q0 -182 96 -306.5t326 -124.5q130 0 240 40t162 96l57 248h-297q-55 0 -45 45l17 74q11 45 66 45 h434q55 0 44 -45l-109 -472q-142 -106 -270 -146.5t-326 -40.5q-302 0 -451 172.5t-149 437.5z" />
<glyph unicode="H" horiz-adv-x="1422" d="M63 55l305 1324q13 55 63 55h92q40 0 40 -35q0 -9 -3 -20l-127 -551h698l127 551q13 55 63 55h92q40 0 40 -35q0 -9 -3 -20l-305 -1324q-13 -55 -63 -55h-92q-40 0 -40 35q0 9 3 20l140 609h-698l-140 -609q-13 -55 -63 -55h-92q-40 0 -40 35q0 9 3 20z" />
<glyph unicode="I" horiz-adv-x="532" d="M63 55l305 1324q13 55 63 55h92q40 0 39 -35q0 -9 -2 -20l-305 -1324q-13 -55 -63 -55h-92q-40 0 -40 35q0 9 3 20z" />
<glyph unicode="J" horiz-adv-x="824" d="M-50 94l36 71q15 30 38 30q17 0 38 -16q70 -53 132 -53q97 0 152 65t83 187l231 1001q13 55 63 55h92q40 0 40 -35q0 -9 -3 -20l-225 -978q-40 -176 -132 -303.5t-320 -127.5q-116 0 -212 59q-21 13 -21 34q0 14 8 31z" />
<glyph unicode="K" horiz-adv-x="1328" d="M63 55l305 1324q13 55 63 55h92q40 0 40 -35q0 -9 -3 -20l-130 -565q-5 -22 -21 -80h4l799 661q47 39 79 39h143q42 0 42 -17q0 -16 -39 -49l-628 -518l354 -784q10 -21 10 -36q0 -30 -43 -30h-107q-43 0 -61 39l-307 684l-304 -252l-96 -416q-13 -55 -63 -55h-92 q-40 0 -40 35q0 9 3 20z" />
<glyph unicode="L" horiz-adv-x="1136" d="M63 55l305 1324q13 55 63 55h92q40 0 40 -35q0 -9 -3 -20l-280 -1215h663q46 0 46 -31q0 -6 -2 -14l-17 -74q-10 -45 -65 -45h-805q-40 0 -40 35q0 9 3 20z" />
<glyph unicode="M" horiz-adv-x="1708" d="M63 55l305 1324q13 55 63 55h201q38 0 43 -60l79 -897q7 -82 10 -146.5t3 -124.5h6q27 63 59 125l78 146l493 897q33 60 71 60h225q40 0 40 -35q0 -9 -3 -20l-305 -1324q-13 -55 -63 -55h-92q-40 0 -40 35q0 9 3 20l242 1049q10 45 20 80h-4l-628 -1123q-34 -61 -80 -61 h-110q-46 0 -52 61l-110 1123h-4q-8 -44 -16 -80l-242 -1049q-13 -55 -63 -55h-92q-40 0 -40 35q0 9 3 20z" />
<glyph unicode="N" horiz-adv-x="1438" d="M63 55l305 1324q13 55 63 55h121q71 0 89 -50l388 -1060h4q9 46 17 80l224 975q13 55 63 55h92q40 0 40 -35q0 -9 -3 -20l-305 -1324q-13 -55 -63 -55h-82q-70 0 -88 50l-413 1125h-4q-8 -44 -16 -80l-240 -1040q-13 -55 -63 -55h-92q-40 0 -40 35q0 9 3 20z" />
<glyph unicode="O" horiz-adv-x="1514" d="M110 580q0 400 214 642t554 242q305 0 461 -162.5t156 -447.5q0 -400 -214 -642t-554 -242q-305 0 -461 162.5t-156 447.5zM315 556q0 -205 106.5 -317.5t316.5 -112.5q220 0 386 183.5t166 568.5q0 205 -106.5 317.5t-316.5 112.5q-220 0 -386 -183.5t-166 -568.5z" />
<glyph unicode="P" horiz-adv-x="1298" d="M63 55l305 1324q13 55 63 55h410q234 0 355.5 -105t121.5 -284q0 -181 -145.5 -325t-499.5 -144h-298l-120 -521q-13 -55 -63 -55h-92q-40 0 -40 35q0 9 3 20zM413 740h311q207 0 303 78.5t96 206.5q0 136 -75 190.5t-242 54.5h-271z" />
<glyph unicode="Q" horiz-adv-x="1514" d="M110 580q0 400 214 642t554 242q305 0 461 -162.5t156 -447.5q0 -400 -214 -642q-185 -209 -464 -238q1 -123 52.5 -167t166.5 -44q51 0 116 13q40 7 43 -15l12 -90q3 -24 -28 -28q-122 -20 -175 -20q-205 0 -292 84.5t-87 267.5q-230 23 -359 157q-156 163 -156 448z M315 556q0 -205 106.5 -317.5t316.5 -112.5q220 0 386 183.5t166 568.5q0 205 -106.5 317.5t-316.5 112.5q-220 0 -386 -183.5t-166 -568.5z" />
<glyph unicode="R" horiz-adv-x="1384" d="M63 55l305 1324q13 55 63 55h453q252 0 360 -108t108 -270q0 -165 -137.5 -274t-333.5 -125l-1 -2q85 -76 109 -118.5t46 -103.5l131 -367q7 -20 7 -33q0 -33 -40 -33h-93q-48 0 -61 39l-116 357q-24 74 -95.5 149.5t-208.5 75.5h-174l-130 -566q-13 -55 -63 -55h-92 q-40 0 -40 35q0 9 3 20zM423 785h309q180 0 302.5 62t122.5 191q0 144 -89.5 188t-235.5 44h-297z" />
<glyph unicode="S" horiz-adv-x="1217" d="M64 198l57 70q13 16 31 16q24 0 55 -29q65 -61 141 -95t194 -34q100 0 169 28.5t122.5 83t53.5 135.5q0 43 -12.5 89t-52 81t-87.5 54q-55 22 -117 42.5t-138 58.5q-64 32 -110 81t-73 117t-27 145q0 141 90 250.5t201 141t206 31.5q133 0 223 -33t164 -90q30 -23 30 -47 q0 -16 -13 -33l-58 -75q-10 -13 -25 -13q-19 0 -44 21q-36 30 -118 65t-171 35q-57 0 -123 -19t-118 -77.5t-52 -142.5q0 -44 12 -84.5t44.5 -70.5t69.5 -48q58 -28 119.5 -48t111.5 -40q80 -32 146.5 -83t95.5 -128.5t29 -147.5q0 -141 -76 -236t-187 -147t-301 -52 q-164 0 -271 40t-171 102q-31 31 -31 57q0 15 11 29z" />
<glyph unicode="T" horiz-adv-x="1240" d="M218 1307l19 82q10 45 65 45h1058q47 0 47 -32q0 -6 -2 -13l-19 -82q-11 -45 -66 -45h-433l-278 -1207q-13 -55 -63 -55h-92q-40 0 -40 35q0 9 3 20l278 1207h-433q-46 0 -46 31q0 7 2 14z" />
<glyph unicode="U" horiz-adv-x="1402" d="M176 547l192 832q13 55 63 55h92q50 0 37 -55l-185 -802q-64 -280 -5 -365.5t240 -85.5q146 0 262.5 85.5t180.5 365.5l185 802q13 55 63 55h92q50 0 37 -55l-192 -832q-73 -317 -234 -447t-430 -130q-199 0 -335 130t-63 447z" />
<glyph unicode="V" horiz-adv-x="1338" d="M242 1368q-9 66 42 66h90q55 0 61 -49l118 -895q8 -59 15 -157t7 -160h4q26 63 81.5 164t86.5 153l532 895q29 49 83 49h114q52 0 12 -66l-789 -1307q-37 -61 -80 -61h-140q-43 0 -52 61z" />
<glyph unicode="W" horiz-adv-x="1888" d="M240 1374q-3 60 40 60h107q31 0 32 -46l23 -961q1 -61 -1 -117.5t-2 -136.5h5q24 59 50 117l62 136l439 954q25 54 76 54h135q51 0 52 -54l18 -954q1 -49 0 -115.5t-1 -137.5h5l63 133q36 74 57 121l434 961q21 46 54 46h132q41 0 12 -60l-633 -1297q-38 -77 -92 -77 h-125q-50 0 -52 84l-26 959q-2 76 0.5 117.5t2.5 98.5h-2q-21 -61 -37 -103.5t-49 -112.5l-453 -959q-40 -84 -90 -84h-125q-53 0 -56 77z" />
<glyph unicode="X" horiz-adv-x="1298" d="M-45 66l638 686l-299 616q-11 22 -11 36q0 30 44 30h98q43 0 61 -39l235 -522l456 522q34 39 79 39h138q33 0 33 -17q0 -16 -30 -49l-591 -641l326 -661q11 -22 11 -37q0 -29 -44 -29h-105q-44 0 -61 39l-254 568l-497 -568q-34 -39 -79 -39h-145q-33 0 -33 17t30 49z " />
<glyph unicode="Y" horiz-adv-x="1302" d="M250 1368q-27 66 42 66h93q44 0 61 -49l156 -437l37 -110q24 -69 38 -129h4l82 112l103 127l358 437q40 49 83 49h125q70 0 12 -66l-681 -778l-123 -535q-13 -55 -63 -55h-92q-50 0 -37 55l123 535z" />
<glyph unicode="Z" horiz-adv-x="1216" d="M-45 45l11 48q10 45 51 89l1010 1086l1 4q-41 -2 -81 -2h-622q-46 0 -46 32q0 6 2 13l17 74q10 45 65 45h922q47 0 47 -32q0 -6 -2 -13l-7 -31q-7 -30 -35 -61l-1034 -1131l-1 -4q28 2 81 2h680q46 0 46 -32q0 -6 -2 -13l-17 -74q-10 -45 -65 -45h-976q-47 0 -47 32 q0 6 2 13z" />
<glyph unicode="[" horiz-adv-x="658" d="M-34 -363l419 1814q10 45 55 45h328q38 0 38 -25q0 -5 -1 -10l-14 -60q-8 -35 -53 -35h-197l-379 -1644h197q45 0 37 -35l-14 -60q-8 -35 -53 -35h-328q-37 0 -37 30q0 7 2 15z" />
<glyph unicode="\" horiz-adv-x="840" d="M147 1394q-12 46 23 55l47 12q37 9 47 -28l466 -1771q12 -46 -25 -56l-46 -12q-35 -9 -45 29z" />
<glyph unicode="]" horiz-adv-x="658" d="M-137 -373l14 60q8 35 53 35h197l379 1644h-197q-45 0 -37 35l14 60q8 35 53 35h328q37 0 37 -30q0 -7 -2 -15l-419 -1814q-10 -45 -55 -45h-328q-38 0 -38 25q0 5 1 10z" />
<glyph unicode="^" horiz-adv-x="866" d="M183 979l263 421q21 34 65 34h42q44 0 65 -34l263 -421q10 -16 10 -29q0 -16 -16 -27l-49 -32q-9 -6 -19 -6q-18 0 -35 26l-239 379h-2l-239 -379q-17 -26 -35 -26q-10 0 -19 6l-49 32q-16 11 -16 27q0 13 10 29z" />
<glyph unicode="_" horiz-adv-x="1100" d="M-219 -295q0 35 45 35h1058q45 0 45 -35v-60q0 -35 -45 -35h-1058q-45 0 -45 35v60z" />
<glyph unicode="`" horiz-adv-x="614" d="M369 1383q-38 52 22 52h101q54 0 75 -37l112 -195q30 -53 -19 -53h-64q-56 0 -77 29z" />
<glyph unicode="a" horiz-adv-x="1099" d="M66 339q0 275 186.5 501.5t391.5 226.5q90 0 148 -37.5t86 -87.5h2l21 63q15 45 49 45h84q37 0 37 -30q0 -7 -2 -15l-222 -960q-10 -45 -55 -45h-81q-37 0 -37 31q0 6 2 14l25 120h-2q-49 -65 -130.5 -123.5t-181.5 -58.5q-145 0 -233 87.5t-88 268.5zM252 332 q0 -66 35.5 -142.5t145.5 -76.5q90 0 199 119t139 248l67 290q0 90 -57.5 128.5t-142.5 38.5q-140 0 -263 -179.5t-123 -425.5z" />
<glyph unicode="b" horiz-adv-x="1119" d="M32 45l320 1386q10 45 55 45h86q37 0 37 -30q0 -7 -2 -15l-112 -485q-7 -29 -16 -61h2q44 79 137 130.5t173 51.5q190 0 264.5 -116.5t74.5 -279.5q0 -255 -161 -471.5t-379 -216.5q-111 0 -173 33.5t-113 101.5h-2l-23 -73q-14 -45 -49 -45h-84q-37 0 -37 30q0 7 2 15z M265 290q10 -100 65 -138.5t167 -38.5q152 0 260 169.5t108 395.5q0 104 -45 181.5t-158 77.5q-98 0 -199.5 -117.5t-132.5 -249.5z" />
<glyph unicode="c" horiz-adv-x="1026" d="M68 402q0 265 163.5 465t428.5 200q162 0 231 -56.5t100 -124.5q16 -36 -14 -52l-66 -35q-34 -18 -53 25q-14 32 -64 72.5t-147 40.5q-156 0 -274.5 -140t-118.5 -410q0 -122 58.5 -198t188.5 -76q103 0 169 53.5t94 95.5q23 35 53 14l63 -46q29 -21 5 -55 q-29 -40 -127 -116t-270 -76q-234 0 -327 133.5t-93 285.5z" />
<glyph unicode="d" horiz-adv-x="1119" d="M70 379q0 255 161 471.5t379 216.5q111 0 173 -33.5t113 -101.5h2q3 24 12 61l101 438q10 45 55 45h86q37 0 37 -30q0 -7 -2 -15l-320 -1386q-10 -45 -55 -45h-84q-30 0 -30 30q0 7 1 15l22 120h-2q-44 -79 -137 -130.5t-173 -51.5q-190 0 -264.5 116.5t-74.5 279.5z M256 372q0 -104 45 -181.5t158 -77.5q98 0 199.5 117.5t132.5 249.5l65 280q-10 100 -65 138.5t-167 38.5q-152 0 -260 -169.5t-108 -395.5z" />
<glyph unicode="e" horiz-adv-x="1078" d="M68 396q0 300 156.5 485.5t427.5 185.5q155 0 250.5 -88.5t95.5 -200.5q0 -148 -141.5 -218t-350.5 -112l-246 -49q-6 -38 -6 -40q0 -99 54 -172t189 -73q115 0 185 42t95 76q23 30 42 30q11 0 21 -9l59 -51q19 -17 -6 -56q-23 -36 -124 -99.5t-296 -63.5 q-213 0 -309 123.5t-96 289.5zM265 538l205 40q140 27 246 74.5t106 133.5q0 68 -61.5 109.5t-141.5 41.5q-121 0 -215.5 -92t-138.5 -307z" />
<glyph unicode="f" horiz-adv-x="652" d="M-5 -355l294 1273h-107q-45 0 -37 35l14 62q8 35 53 35h107l35 149q38 167 143 230.5t221 63.5q69 0 109.5 -7t93.5 -31q12 -5 12 -15q0 -8 -6 -17l-50 -79q-12 -20 -37 -8q-19 10 -49 18.5t-67 8.5q-83 0 -129 -40t-72 -153l-28 -120h183q45 0 37 -35l-14 -62 q-8 -35 -53 -35h-183l-294 -1273q-10 -45 -55 -45h-86q-37 0 -37 30q0 7 2 15z" />
<glyph unicode="g" horiz-adv-x="1119" d="M-16 -298q-10 16 -10 30q0 16 14 30l50 48q11 11 23 11q15 0 33 -19q38 -40 96 -64.5t164 -24.5q124 0 208.5 67.5t121.5 230.5l21 93q6 27 16 61h-2q-44 -79 -137 -130.5t-173 -51.5q-190 0 -264.5 116.5t-74.5 279.5q0 255 161 471.5t379 216.5q111 0 173 -33.5 t113 -101.5h2l23 73q14 45 49 45h84q37 0 37 -30q0 -7 -2 -15l-234 -1013q-47 -205 -160 -307t-372 -102q-135 0 -221 32.5t-118 86.5zM256 372q0 -104 45 -181.5t158 -77.5q98 0 199.5 117.5t132.5 249.5l65 280q-10 100 -65 138.5t-167 38.5q-152 0 -260 -169.5 t-108 -395.5z" />
<glyph unicode="h" horiz-adv-x="1128" d="M32 45l320 1386q10 45 56 45h86q36 0 36 -30q0 -7 -2 -15l-112 -486q-6 -28 -15 -60h4q59 73 153.5 127.5t214.5 54.5q170 -1 232 -103q37 -62 38 -150q0 -59 -17 -130l-148 -639q-10 -45 -55 -45h-86q-37 0 -37 30q0 7 2 15l137 591q22 95 22 156q0 64 -25 92 q-48 52 -158 53q-120 0 -218.5 -116.5t-133.5 -266.5l-118 -509q-10 -45 -55 -45h-86q-37 0 -37 30q0 7 2 15z" />
<glyph unicode="i" horiz-adv-x="460" d="M32 45l222 960q10 45 55 45h86q37 0 37 -30q0 -7 -2 -15l-222 -960q-10 -45 -55 -45h-86q-37 0 -37 30q0 7 2 15zM319 1285l20 86q10 45 55 45h86q37 0 37 -30q0 -7 -2 -15l-20 -86q-11 -45 -56 -45h-86q-36 0 -36 29q0 7 2 16z" />
<glyph unicode="j" horiz-adv-x="466" d="M-300 -365l25 81q8 26 29 15q35 -18 91 -18q59 0 101 57t83 236l231 999q10 45 55 45h86q37 0 37 -30q0 -7 -2 -15l-253 -1098q-45 -194 -136 -259t-200 -65q-99 0 -137 20q-12 6 -12 20q0 5 2 12zM325 1285l20 86q10 45 55 45h86q37 0 37 -30q0 -7 -2 -15l-20 -86 q-11 -45 -56 -45h-86q-36 0 -36 29q0 7 2 16z" />
<glyph unicode="k" horiz-adv-x="1003" d="M32 45l320 1386q10 45 56 45h86q36 0 36 -30q0 -7 -2 -15l-189 -820q-7 -29 -16 -60h2l505 473q28 26 59 26h111q42 0 42 -18q0 -15 -29 -41l-409 -380l228 -552q7 -16 7 -28q0 -31 -47 -31h-81q-33 0 -48 37l-186 454l-211 -198l-58 -248q-11 -45 -55 -45h-86 q-37 0 -37 30q0 7 2 15z" />
<glyph unicode="l" horiz-adv-x="460" d="M32 45l289 1248q4 20 18 38l100 127q27 35 39 35h35q24 0 24 -22q0 -6 -2 -13l-327 -1413q-10 -45 -55 -45h-86q-37 0 -37 30q0 7 2 15z" />
<glyph unicode="m" horiz-adv-x="1678" d="M32 45l222 960q10 45 55 45h84q37 0 37 -30q0 -7 -2 -15l-27 -120h4q59 72 148.5 127t179.5 55q110 0 172.5 -69.5t62.5 -164.5h4q63 82 159.5 158t211.5 76q140 -1 207 -103q42 -64 41 -156q0 -57 -15 -124l-148 -639q-10 -45 -55 -45h-86q-37 0 -37 30q0 7 2 15 l135 581q26 114 26 181q0 48 -13 72q-32 58 -142 58q-90 0 -189.5 -120.5t-132.5 -262.5l-118 -509q-10 -45 -55 -45h-86q-37 0 -37 30q0 7 2 15l135 581q26 114 26 181q0 48 -13 72q-32 58 -142 58q-90 0 -188.5 -116.5t-133.5 -266.5l-118 -509q-10 -45 -55 -45h-86 q-37 0 -37 30q0 7 2 15z" />
<glyph unicode="n" horiz-adv-x="1128" d="M32 45l222 960q10 45 55 45h84q37 0 37 -30q0 -7 -2 -15l-27 -120h4q59 73 153.5 127.5t214.5 54.5q170 -1 232 -103q37 -62 38 -150q0 -59 -17 -130l-148 -639q-10 -45 -55 -45h-86q-37 0 -37 30q0 7 2 15l137 591q22 95 22 156q0 64 -25 92q-48 52 -158 53 q-120 0 -218.5 -116.5t-133.5 -266.5l-118 -509q-10 -45 -55 -45h-86q-37 0 -37 30q0 7 2 15z" />
<glyph unicode="o" horiz-adv-x="1148" d="M68 402q0 264 163.5 464.5t428.5 200.5q234 0 327 -134.5t93 -284.5q0 -264 -163.5 -464.5t-428.5 -200.5q-234 0 -327 134.5t-93 284.5zM254 387q0 -125 58.5 -199.5t188.5 -74.5q156 0 274.5 141.5t118.5 408.5q0 125 -58.5 199.5t-188.5 74.5q-156 0 -274.5 -141.5 t-118.5 -408.5z" />
<glyph unicode="p" horiz-adv-x="1119" d="M-60 -355l314 1360q10 45 55 45h84q30 0 30 -30q0 -7 -1 -15l-22 -120h2q44 79 137 130.5t173 51.5q190 0 264.5 -116.5t74.5 -279.5q0 -255 -161 -471.5t-379 -216.5q-111 0 -173 33.5t-113 101.5h-2q-4 -28 -12 -61l-95 -412q-10 -45 -55 -45h-86q-37 0 -37 30 q0 7 2 15zM265 290q10 -100 65 -138.5t167 -38.5q152 0 260 169.5t108 395.5q0 104 -45 181.5t-158 77.5q-98 0 -199.5 -117.5t-132.5 -249.5z" />
<glyph unicode="q" horiz-adv-x="1119" d="M70 379q0 255 161 471.5t379 216.5q111 0 173 -33.5t113 -101.5h2l23 73q14 45 49 45h84q37 0 37 -30q0 -7 -2 -15l-314 -1360q-10 -45 -55 -45h-86q-37 0 -37 30q0 7 2 15l106 459q9 37 16 61h-2q-44 -79 -137 -130.5t-173 -51.5q-190 0 -264.5 116.5t-74.5 279.5z M256 372q0 -104 45 -181.5t158 -77.5q98 0 199.5 117.5t132.5 249.5l65 280q-10 100 -65 138.5t-167 38.5q-152 0 -260 -169.5t-108 -395.5z" />
<glyph unicode="r" horiz-adv-x="722" d="M32 45l222 960q10 45 55 45h84q37 0 37 -30q0 -7 -2 -15l-37 -160h4q72 113 147.5 167.5t178.5 54.5q59 0 83 -11q13 -5 13 -17q0 -6 -3 -13l-33 -82q-7 -18 -29 -14q-34 7 -69 7q-109 0 -221 -141.5t-147 -291.5l-107 -459q-10 -45 -55 -45h-86q-37 0 -37 30q0 7 2 15z " />
<glyph unicode="s" horiz-adv-x="937" d="M20 157l50 59q9 10 22 10q18 0 43 -19q57 -43 122.5 -68.5t137.5 -25.5q54 0 107.5 14.5t88.5 57.5t35 86t-12.5 73t-43.5 51t-62 33l-96 38q-54 22 -102 44q-46 22 -82 63t-53 89.5t-17 103.5q0 82 50 160.5t144.5 109.5t205.5 31q96 0 173 -27.5t131 -72.5 q16 -13 16 -28q0 -13 -12 -26l-50 -56q-8 -8 -19 -8q-18 0 -45 19q-40 28 -92 46t-107 18q-48 0 -101.5 -14t-85.5 -50t-32 -86q0 -36 10 -66t35.5 -50.5t54.5 -33.5q52 -24 100.5 -41t88.5 -35q70 -30 114 -70t59.5 -89t15.5 -106q0 -111 -69.5 -184t-158.5 -98.5 t-204 -25.5q-143 0 -228.5 39.5t-123.5 79.5q-17 18 -17 34q0 11 9 21z" />
<glyph unicode="t" horiz-adv-x="757" d="M146 953l14 62q8 35 53 35h118l21 90q5 19 19 38l99 127q27 35 39 35h35q30 0 22 -35l-59 -255h213q38 0 38 -25q0 -4 -1 -10l-14 -62q-8 -35 -53 -35h-213l-147 -637q-12 -52 -11 -86q0 -35 11 -51q24 -32 60 -31q46 0 95 17.5t66 28.5q22 14 29 -6l26 -72 q6 -18 -11 -29q-41 -26 -119.5 -47.5t-167.5 -21.5q-88 0 -138 75q-31 46 -31 115q0 44 12 97l150 648h-118q-38 0 -38 25q0 5 1 10z" />
<glyph unicode="u" horiz-adv-x="1120" d="M104 366l148 639q10 45 55 45h86q45 0 35 -45l-136 -591q-45 -197 3 -249t153 -52q147 0 230 116.5t118 266.5l118 509q10 45 55 45h86q45 0 35 -45l-222 -960q-10 -45 -55 -45h-84q-45 0 -35 45l28 120h-4q-59 -73 -154.5 -127.5t-210.5 -54.5q-160 0 -225 102.5 t-24 280.5z" />
<glyph unicode="v" horiz-adv-x="986" d="M156 1001q-6 49 38 49h99q32 0 36 -39l60 -660q4 -40 7 -91t3 -96h4q18 46 35 76l61 111l364 660q22 39 54 39h119q44 0 16 -49l-545 -940q-35 -61 -68 -61h-132q-33 0 -40 61z" />
<glyph unicode="w" horiz-adv-x="1444" d="M156 1001q-2 49 38 49h97q36 0 36 -39l-3 -660q0 -45 -1 -98t-1 -84h4q11 28 38 87.5t45 94.5l328 660q19 39 54 39h90q35 0 36 -39l24 -660q1 -36 0 -84.5t-1 -97.5h4l41 91l43 91l299 660q18 39 54 39h113q40 0 16 -49l-465 -940q-30 -61 -68 -61h-120q-38 0 -40 61 l-17 661q-1 58 0.5 92t4.5 59h-2q-9 -25 -26 -66t-39 -85l-323 -661q-30 -61 -68 -61h-120q-38 0 -40 61z" />
<glyph unicode="x" horiz-adv-x="968" d="M-56 59l452 506l-193 426q-8 17 -8 29q0 30 47 30h74q36 0 47 -26l148 -348l287 348q21 26 59 26h109q37 0 37 -18q0 -15 -24 -41l-400 -449l221 -483q8 -17 8 -29q0 -30 -48 -30h-78q-36 0 -47 26l-170 405l-338 -405q-22 -26 -59 -26h-112q-36 0 -36 18q0 14 24 41z " />
<glyph unicode="y" horiz-adv-x="1128" d="M0 -306q-14 19 -14 36q0 18 16 32l56 52q32 29 50 0q30 -48 87 -74.5t170 -26.5q121 0 206.5 68.5t122.5 228.5q23 102 37 155h-4q-59 -73 -150 -127.5t-218 -54.5q-170 0 -232 103q-37 61 -37 150q0 59 16 130l148 639q10 45 55 45h86q37 0 37 -30q0 -7 -2 -15 l-136 -591q-22 -96 -22 -157q0 -65 24 -92q48 -52 158 -52q106 0 211.5 113.5t141.5 269.5l117 509q10 45 55 45h86q37 0 37 -30q0 -7 -2 -15l-234 -1014q-47 -205 -158 -306.5t-374 -101.5q-171 0 -236 33t-98 78z" />
<glyph unicode="z" horiz-adv-x="950" d="M-57 35l12 51q8 34 53 80l737 752v2q-30 -2 -60 -2h-469q-45 0 -37 35l14 62q8 35 53 35h702q38 0 38 -25q0 -4 -1 -10l-11 -47q-7 -28 -55 -78l-740 -758v-2q30 2 60 2h521q45 0 37 -35l-14 -62q-8 -35 -53 -35h-750q-38 0 -38 25q0 5 1 10z" />
<glyph unicode="{" horiz-adv-x="776" d="M91 524l9 40q11 45 46 45q64 0 159 64.5t140 257.5l54 235q39 170 100 250t287 80q38 0 38 -25q0 -5 -1 -10l-14 -60q-8 -35 -53 -35q-98 0 -125.5 -41.5t-49.5 -135.5l-67 -286q-54 -234 -156 -293t-173 -65l-1 -2q75 -19 139 -109q40 -56 40 -141q0 -49 -14 -108 l-66 -286q-16 -67 -16 -108q0 -16 3 -28q9 -41 107 -41q45 0 37 -35l-14 -60q-8 -35 -53 -35q-180 0 -222 99q-25 58 -25 127q0 49 12 104l54 235q18 79 18 137q0 72 -28 112q-50 73 -140 73q-27 0 -27 27q0 8 2 18z" />
<glyph unicode="|" horiz-adv-x="590" d="M232 -395v1846q0 45 35 45h60q35 0 35 -45v-1846q0 -45 -35 -45h-60q-35 0 -35 45z" />
<glyph unicode="}" horiz-adv-x="776" d="M-136 -373l14 60q8 35 53 35q98 0 125.5 41.5t49.5 135.5l67 286q54 234 156 293t173 65l1 2q-75 19 -139 108q-40 57 -40 142q0 49 14 108l66 286q16 67 16 108q0 16 -3 28q-9 41 -107 41q-45 0 -37 35l14 60q8 35 53 35q180 0 222 -99q25 -58 25 -127q0 -49 -12 -104 l-54 -235q-18 -79 -18 -137q0 -72 28 -112q50 -73 140 -73q27 0 27 -27q0 -8 -2 -18l-9 -40q-11 -45 -46 -45q-64 0 -159 -64.5t-140 -257.5l-54 -235q-39 -170 -100 -250t-287 -80q-38 0 -38 25q0 5 1 10z" />
<glyph unicode="~" horiz-adv-x="1280" d="M135 671q35 110 116 174.5t196 64.5t278.5 -120t238.5 -120q69 0 113 45t69 101q13 30 37 21l43 -15q16 -5 16 -24q0 -8 -3 -19q-35 -110 -116 -174.5t-196 -64.5t-278.5 120t-238.5 120q-69 0 -113 -45t-69 -101q-13 -30 -37 -21l-43 15q-16 5 -16 24q0 8 3 19z" />
<glyph unicode="&#xa2;" d="M118 402q0 265 158.5 459t401.5 205l43 186q10 45 45 45h50q35 0 25 -45l-44 -190q95 -12 154 -60t90 -116q6 -13 6 -23q0 -19 -20 -29l-66 -35q-10 -5 -19 -5q-21 0 -34 30q-14 32 -54 64.5t-87 42.5l-189 -817q85 6 146.5 56t89.5 92q23 35 53 14l63 -46q29 -21 5 -55 q-29 -40 -125.5 -115t-261.5 -77l-43 -185q-10 -45 -45 -45h-50q-35 0 -25 45l45 193q-149 25 -230.5 142t-81.5 269zM304 387q0 -122 47 -183t109 -79l187 808q-126 -19 -234.5 -147.5t-108.5 -398.5z" />
<glyph unicode="&#xa3;" d="M-31 45l14 57q10 41 51 73q54 41 135 124t106 193l31 136h-158q-36 0 -36 30q0 7 2 15l17 74q10 45 56 45h157l51 221q57 247 175 343t321 96q108 0 178.5 -36.5t107.5 -80.5q13 -16 13 -31t-14 -30l-41 -44q-14 -16 -30 -16q-17 0 -36 18q-31 28 -82 49t-120 21 q-114 0 -186.5 -63t-104.5 -204l-56 -243h285q36 0 36 -30q0 -7 -2 -15l-17 -74q-10 -45 -54 -45h-286l-31 -133q-31 -133 -96.5 -217t-117.5 -112v-4q27 2 81 2h571q46 0 46 -32q0 -6 -2 -13l-17 -74q-10 -45 -65 -45h-837q-47 0 -47 31q0 7 2 14z" />
<glyph unicode="&#xa5;" d="M99 305l14 59q11 45 55 45h273l42 181h-273q-36 0 -36 30q0 7 2 15l13 59q10 45 56 45h186l-220 629q-6 17 -6 30q0 36 48 36h80q47 0 61 -49l125 -437l37 -130q15 -49 29 -109h4l80 111l96 128l327 437q37 49 83 49h104q36 0 36 -20q0 -16 -24 -46l-510 -629h176 q36 0 36 -30q0 -7 -2 -15l-13 -59q-10 -45 -56 -45h-263l-42 -181h263q37 0 37 -29q0 -7 -2 -16l-14 -59q-11 -45 -55 -45h-263l-50 -215q-10 -45 -55 -45h-86q-37 0 -37 30q0 7 2 15l50 215h-273q-37 0 -37 29q0 7 2 16z" />
<glyph unicode="&#xa9;" horiz-adv-x="1654" d="M100 717q0 152 59.5 290t159.5 238t238 159.5t290 59.5t290 -59.5t238 -159.5t159.5 -238t59.5 -290t-59.5 -290t-159.5 -238t-238 -159.5t-290 -59.5t-290 59.5t-238 159.5t-159.5 238t-59.5 290zM200 717q0 -132 51.5 -251.5t138 -206t206 -140t251.5 -53.5t251.5 53.5 t206 140t138 206t51.5 251.5t-51.5 251.5t-138 206t-206 140t-251.5 53.5t-251.5 -53.5t-206 -140t-138 -206t-51.5 -251.5zM450 717q0 203 103 318t292 115q110 0 184.5 -38t105.5 -103q16 -34 -5 -46l-58 -32q-23 -13 -41 22q-19 37 -59 64.5t-122 27.5q-145 0 -207.5 -83 t-62.5 -245t62.5 -245t207.5 -83q84 0 130.5 34.5t69.5 76.5q18 33 42 20l60 -33q11 -6 11 -20q0 -11 -8 -27q-34 -67 -113.5 -111.5t-196.5 -44.5q-188 0 -291.5 115t-103.5 318z" />
<glyph unicode="&#xad;" horiz-adv-x="680" d="M56 518l16 70q8 35 53 35h478q38 0 38 -25q0 -5 -1 -10l-16 -70q-8 -35 -53 -35h-478q-38 0 -38 25q0 5 1 10z" />
<glyph unicode="&#xae;" horiz-adv-x="1654" d="M100 717q0 152 59.5 290t159.5 238t238 159.5t290 59.5t290 -59.5t238 -159.5t159.5 -238t59.5 -290t-59.5 -290t-159.5 -238t-238 -159.5t-290 -59.5t-290 59.5t-238 159.5t-159.5 238t-59.5 290zM200 717q0 -132 51.5 -251.5t138 -206t206 -140t251.5 -53.5t251.5 53.5 t206 140t138 206t51.5 251.5t-51.5 251.5t-138 206t-206 140t-251.5 53.5t-251.5 -53.5t-206 -140t-138 -206t-51.5 -251.5zM560 315v768q0 32 29 32h280q168 0 243 -63t75 -165q0 -90 -58.5 -152.5t-174.5 -76.5v-1q57 -35 77 -59t44 -64l131 -212q10 -16 10 -25 q0 -14 -21 -14h-76q-26 0 -40 23l-116 197q-23 39 -75.5 84.5t-125.5 45.5h-82v-318q0 -32 -29 -32h-62q-29 0 -29 32zM680 743h149q113 0 173 32.5t60 108.5q0 70 -55 95.5t-150 25.5h-177v-262z" />
<glyph unicode="&#xb4;" horiz-adv-x="614" d="M330 1203l166 195q32 37 87 37h121q31 0 31 -14q0 -13 -25 -38l-206 -204q-30 -29 -85 -29h-84q-26 0 -26 15q0 13 21 38z" />
<glyph unicode="&#x131;" horiz-adv-x="460" d="M32 45l222 960q10 45 55 45h86q37 0 37 -30q0 -7 -2 -15l-222 -960q-10 -45 -55 -45h-86q-37 0 -37 30q0 7 2 15z" />
<glyph unicode="&#x237;" horiz-adv-x="466" d="M-300 -365l25 81q8 26 29 15q35 -18 91 -18q59 0 101 57t83 236l231 999q10 45 55 45h86q37 0 37 -30q0 -7 -2 -15l-253 -1098q-45 -194 -136 -259t-200 -65q-99 0 -137 20q-12 6 -12 20q0 5 2 12z" />
<glyph unicode="&#x2d9;" horiz-adv-x="614" d="M396 1285l20 86q10 45 55 45h86q37 0 37 -30q0 -7 -2 -15l-20 -86q-11 -45 -56 -45h-86q-36 0 -36 29q0 7 2 16z" />
<glyph unicode="&#x2000;" horiz-adv-x="808" />
<glyph unicode="&#x2001;" horiz-adv-x="1616" />
<glyph unicode="&#x2002;" horiz-adv-x="808" />
<glyph unicode="&#x2003;" horiz-adv-x="1616" />
<glyph unicode="&#x2004;" horiz-adv-x="538" />
<glyph unicode="&#x2005;" horiz-adv-x="404" />
<glyph unicode="&#x2006;" horiz-adv-x="269" />
<glyph unicode="&#x2007;" horiz-adv-x="269" />
<glyph unicode="&#x2008;" horiz-adv-x="202" />
<glyph unicode="&#x2009;" horiz-adv-x="323" />
<glyph unicode="&#x200a;" horiz-adv-x="89" />
<glyph unicode="&#x2010;" horiz-adv-x="680" d="M56 518l16 70q8 35 53 35h478q38 0 38 -25q0 -5 -1 -10l-16 -70q-8 -35 -53 -35h-478q-38 0 -38 25q0 5 1 10z" />
<glyph unicode="&#x2011;" horiz-adv-x="680" d="M56 518l16 70q8 35 53 35h478q38 0 38 -25q0 -5 -1 -10l-16 -70q-8 -35 -53 -35h-478q-38 0 -38 25q0 5 1 10z" />
<glyph unicode="&#x2012;" horiz-adv-x="680" d="M56 518l16 70q8 35 53 35h478q38 0 38 -25q0 -5 -1 -10l-16 -70q-8 -35 -53 -35h-478q-38 0 -38 25q0 5 1 10z" />
<glyph unicode="&#x2013;" horiz-adv-x="1032" d="M44 523v60q0 35 45 35h862q45 0 45 -35v-60q0 -35 -45 -35h-862q-45 0 -45 35z" />
<glyph unicode="&#x2014;" horiz-adv-x="2056" d="M44 523v60q0 35 45 35h1886q45 0 45 -35v-60q0 -35 -45 -35h-1886q-45 0 -45 35z" />
<glyph unicode="&#x2018;" horiz-adv-x="498" d="M260 1015l29 122q30 127 67.5 192t115.5 127q16 12 26 12q7 0 12 -5l37 -40q5 -5 5 -11q0 -11 -18 -24q-35 -26 -74 -88.5t-52 -117.5h52q37 0 37 -29q0 -7 -2 -16l-29 -122q-11 -45 -55 -45h-116q-37 0 -37 29q0 7 2 16z" />
<glyph unicode="&#x2019;" horiz-adv-x="498" d="M274 1016q-5 5 -5 11q0 11 18 24q35 26 74 88.5t52 117.5h-52q-37 0 -37 29q0 7 2 16l29 122q11 45 55 45h116q37 0 37 -29q0 -7 -2 -16l-29 -122q-30 -127 -67.5 -192t-115.5 -127q-16 -12 -26 -12q-7 0 -12 5z" />
<glyph unicode="&#x201a;" horiz-adv-x="498" d="M-16 -241q-5 5 -5 11q0 11 18 24q35 26 74 88.5t52 117.5h-52q-37 0 -37 29q0 7 2 16l29 122q11 45 55 45h116q37 0 37 -29q0 -7 -2 -16l-29 -122q-30 -127 -67.5 -192t-115.5 -127q-16 -12 -26 -12q-7 0 -12 5z" />
<glyph unicode="&#x201c;" horiz-adv-x="760" d="M226 1015l29 122q30 127 67.5 192t115.5 127q16 12 26 12q7 0 12 -5l37 -40q14 -15 -13 -35q-35 -26 -74 -88.5t-52 -117.5h52q37 0 37 -29q0 -7 -2 -16l-29 -122q-11 -45 -55 -45h-116q-37 0 -37 29q0 7 2 16zM556 1015l29 122q30 127 67.5 192t115.5 127q16 12 26 12 q7 0 12 -5l37 -40q5 -5 5 -11q0 -11 -18 -24q-35 -26 -74 -88.5t-52 -117.5h52q37 0 37 -29q0 -7 -2 -16l-29 -122q-11 -45 -55 -45h-116q-37 0 -37 29q0 7 2 16z" />
<glyph unicode="&#x201d;" horiz-adv-x="760" d="M240 1016q-5 5 -5 11q0 11 18 24q35 26 74 88.5t52 117.5h-52q-37 0 -37 29q0 7 2 16l29 122q11 45 55 45h116q37 0 37 -29q0 -7 -2 -16l-29 -122q-30 -127 -67.5 -192t-115.5 -127q-16 -12 -26 -12q-7 0 -12 5zM570 1016q-5 5 -5 11q0 11 18 24q35 26 74 88.5t52 117.5 h-52q-37 0 -37 29q0 7 2 16l29 122q11 45 55 45h116q37 0 37 -29q0 -7 -2 -16l-29 -122q-30 -127 -67.5 -192t-115.5 -127q-16 -12 -26 -12q-7 0 -12 5z" />
<glyph unicode="&#x2022;" horiz-adv-x="1024" d="M342 694q0 87 61.5 148.5t148.5 61.5t148.5 -61.5t61.5 -148.5t-61.5 -148.5t-148.5 -61.5t-148.5 61.5t-61.5 148.5z" />
<glyph unicode="&#x2026;" horiz-adv-x="2048" d="M140 45l29 122q10 45 55 45h112q37 0 37 -30q0 -7 -2 -15l-29 -122q-10 -45 -55 -45h-112q-37 0 -37 30q0 7 2 15zM813 45l29 122q10 45 55 45h112q37 0 37 -30q0 -7 -2 -15l-29 -122q-10 -45 -55 -45h-112q-37 0 -37 30q0 7 2 15zM1486 45l29 122q10 45 55 45h112 q37 0 37 -30q0 -7 -2 -15l-29 -122q-10 -45 -55 -45h-112q-37 0 -37 30q0 7 2 15z" />
<glyph unicode="&#x202f;" horiz-adv-x="323" />
<glyph unicode="&#x205f;" horiz-adv-x="404" />
<glyph unicode="&#x20ac;" d="M27 549l19 62q11 35 59 35h38q11 79 29 152h-71q-42 0 -31 35l20 62q11 35 59 35h64q30 132 196.5 327t442.5 195q78 0 168 -30t147 -115q23 -34 23 -55q0 -16 -12 -25l-49 -38q-14 -11 -29 -11q-24 0 -49 31q-37 45 -85.5 69t-137.5 24q-162 0 -279 -147t-131 -225h400 q42 0 31 -35l-20 -62q-11 -35 -59 -35h-400q-22 -74 -33 -152h437q42 0 31 -35l-19 -62q-11 -35 -59 -35h-402q-1 -25 -1 -50q0 -122 56.5 -233t194.5 -111q64 0 132.5 37.5t114.5 85.5q30 32 52 32q15 0 26 -15l41 -56q11 -15 11 -31q0 -23 -25 -48q-57 -55 -143 -105 t-234 -50q-193 0 -307.5 130.5t-114.5 315.5q0 50 3 98h-73q-33 0 -33 22q0 6 2 13z" />
<glyph unicode="&#x2122;" horiz-adv-x="1598" d="M202 1360v52q0 22 29 22h516q29 0 29 -22v-52q0 -22 -29 -22h-198v-547q0 -29 -28 -29h-64q-28 0 -28 29v547h-198q-29 0 -29 22zM849 791v614q0 29 29 29h132q20 0 29 -25l147 -422q10 -28 18 -55t16 -59h2q8 32 16 59t18 55l147 422q9 25 29 25h132q29 0 29 -29v-614 q0 -29 -29 -29h-63q-28 0 -28 29v483q0 19 1 38h-1l-185 -511q-14 -39 -35 -39h-64q-21 0 -35 39l-185 511h-1q1 -19 1 -38v-483q0 -29 -28 -29h-63q-29 0 -29 29z" />
<glyph unicode="&#x2212;" horiz-adv-x="1280" d="M127 700v50q0 35 45 35h1030q45 0 45 -35v-50q0 -35 -45 -35h-1030q-45 0 -45 35z" />
<glyph unicode="&#x2215;" horiz-adv-x="802" d="M-238 -40q-27 23 2 56l1280 1496q29 35 56 12l38 -33q25 -22 -4 -56l-1278 -1497q-31 -35 -58 -12z" />
<glyph unicode="&#xe000;" horiz-adv-x="1050" d="M0 1050h1050v-1050h-1050v1050z" />
<glyph unicode="&#xf102;" horiz-adv-x="698" d="M-10 258q0 168 113 311.5t262 143.5q143 0 199 -86.5t56 -228.5q0 -168 -113 -311.5t-262 -143.5q-143 0 -199 86.5t-56 228.5zM150 238q0 -80 20 -130t85 -50q80 0 142.5 110t62.5 250q0 80 -20 130t-85 50q-80 0 -142.5 -110t-62.5 -250z" />
</font>
</defs>
</svg>
