<?xml version="1.0" standalone="no"?>
<!DOCTYPE svg PUBLIC "-//W3C//DTD SVG 1.1//EN" "http://www.w3.org/Graphics/SVG/1.1/DTD/svg11.dtd" >
<svg xmlns="http://www.w3.org/2000/svg">
<metadata>
This is a custom SVG webfont generated by Font Squirrel.
Copyright   : C 2009 2010 2011 Andrey V Panov
Designer    : Andrey V Panov
Foundry     : Andrey V Panov
Foundry URL : httpcodegooglecompistok
</metadata>
<defs>
<font id="IstokWebBoldItalic" horiz-adv-x="1200" >
<font-face units-per-em="2048" ascent="1638" descent="-410" />
<missing-glyph horiz-adv-x="700" />
<glyph unicode=" "  horiz-adv-x="700" />
<glyph unicode="&#x09;" horiz-adv-x="700" />
<glyph unicode="&#xa0;" horiz-adv-x="700" />
<glyph unicode="!" horiz-adv-x="668" d="M85 75l31 134q17 75 88 75h152q56 0 56 -47q0 -13 -4 -28l-31 -134q-17 -75 -87 -75h-152q-56 0 -56 49q0 11 3 26zM203 485l175 874q15 75 87 75h160q57 0 57 -47q0 -12 -4 -28l-229 -874q-17 -65 -80 -65h-116q-52 0 -52 45q0 9 2 20z" />
<glyph unicode="&#x22;" horiz-adv-x="976" d="M240 884l96 520q12 65 66 65h174q40 0 40 -37q0 -12 -4 -28l-144 -520q-17 -60 -64 -60h-128q-38 0 -38 39q0 10 2 21zM676 884l96 520q12 65 66 65h174q40 0 40 -37q0 -12 -4 -28l-144 -520q-17 -60 -64 -60h-128q-38 0 -38 39q0 10 2 21z" />
<glyph unicode="#" horiz-adv-x="1416" d="M121 394l15 80q9 50 68 50h181l65 374h-180q-52 0 -52 39q0 5 1 11l14 80q9 50 69 50h180l50 284q11 60 61 60h86q41 0 41 -40q0 -9 -2 -20l-50 -284h298l50 284q11 60 61 60h86q41 0 41 -40q0 -9 -2 -20l-50 -284h180q52 0 52 -39q0 -5 -1 -11l-14 -80q-9 -50 -69 -50 h-180l-65 -374h179q53 0 53 -39q0 -5 -1 -11l-15 -80q-9 -50 -68 -50h-180l-50 -284q-11 -60 -61 -60h-86q-41 0 -41 40q0 9 2 20l50 284h-298l-50 -284q-11 -60 -61 -60h-86q-41 0 -41 40q0 9 2 20l50 284h-180q-53 0 -53 39q0 5 1 11zM571 524h298l65 374h-298z" />
<glyph unicode="$" d="M32 200l70 98q15 22 38 22q28 0 66 -32q54 -45 128.5 -69t117.5 -31l100 430q-60 28 -82 42q-69 44 -113.5 97t-68.5 112t-24 168t69 221t193.5 154.5t219.5 42.5l23 101q14 60 64 60h80q39 0 39 -37q0 -10 -3 -23l-25 -106q86 -14 132 -39t91 -64q38 -33 38 -61 q0 -15 -11 -29l-86 -106q-25 -31 -48 -31q-20 0 -38 23q-20 25 -55 48t-75 33l-97 -418q33 -19 67 -34q74 -34 130 -91t78.5 -134t22.5 -141q0 -133 -82.5 -244.5t-196 -152.5t-212.5 -41l-27 -118q-14 -60 -63 -60h-80q-40 0 -40 37q0 10 3 23l28 123q-76 9 -178.5 39 t-167.5 90q-37 33 -37 64q0 17 12 34zM520 1039q0 -30 10 -65.5t58 -72.5q16 -12 26 -18l80 350q-82 -9 -128 -70t-46 -124zM634 196q61 14 120 68t59 138q0 35 -13.5 71t-53.5 61q-9 6 -29 16z" />
<glyph unicode="%" horiz-adv-x="1802" d="M98 1062q0 150 116.5 299t291.5 149q128 0 193 -79t65 -249q0 -160 -116.5 -304t-291.5 -144q-128 0 -193 79t-65 249zM131 -21q-14 13 -14 30q0 21 25 48l1360 1458q31 33 55 33q14 0 26 -12l68 -65q14 -13 14 -30q0 -21 -25 -48l-1359 -1458q-30 -33 -54 -33 q-15 0 -27 12zM300 1032q0 -66 15.5 -114.5t56.5 -48.5q80 0 135 109t55 234q0 66 -15.5 114.5t-56.5 48.5q-80 0 -135 -109t-55 -234zM1013 268q0 150 116.5 299t291.5 149q128 0 193 -79t65 -249q0 -160 -116.5 -304t-291.5 -144q-128 0 -193 79t-65 249zM1215 238 q0 -66 15.5 -114.5t56.5 -48.5q80 0 135 109t55 234q0 66 -15.5 114.5t-56.5 48.5q-80 0 -135 -109t-55 -234z" />
<glyph unicode="&#x26;" horiz-adv-x="1416" d="M69 279q0 173 106.5 298t332.5 252q-53 80 -77 142.5t-24 162.5q0 138 114 236t312 98q162 0 253.5 -84t91.5 -199q0 -124 -88 -224.5t-242 -191.5l162 -310q50 45 83 85t71 101q26 42 58 42q17 0 36 -12l97 -62q8 -5 8 -17q0 -20 -19 -58q-40 -82 -90 -145.5 t-140 -128.5l104 -198q11 -20 11 -34q0 -32 -57 -32h-155q-71 0 -103 59l-30 56q-83 -73 -202.5 -111t-232.5 -38q-205 0 -292.5 91t-87.5 222zM369 314q0 -60 33 -95t103 -35q83 0 145.5 32t133.5 87l-170 321q-114 -78 -179.5 -148t-65.5 -162zM677 1133q0 -47 9.5 -85 t51.5 -94q98 56 134 97t36 94q0 39 -24 66t-83 27q-55 0 -89.5 -37t-34.5 -68z" />
<glyph unicode="'" horiz-adv-x="560" d="M250 884l96 520q12 65 66 65h174q40 0 40 -37q0 -12 -4 -28l-144 -520q-17 -60 -64 -60h-128q-38 0 -38 39q0 10 2 21z" />
<glyph unicode="(" horiz-adv-x="740" d="M77 339q0 429 233.5 757t427.5 435q50 27 71 9l86 -82q33 -32 -17 -72q-170 -138 -335.5 -392t-165.5 -667q0 -251 21.5 -386.5t74.5 -255.5q26 -58 -13 -83l-81 -52q-42 -27 -78 24q-97 135 -160.5 330.5t-63.5 434.5z" />
<glyph unicode=")" horiz-adv-x="740" d="M-143 -370q-33 32 17 72q170 138 335.5 392t165.5 667q0 251 -21.5 386.5t-74.5 255.5q-26 58 13 83l81 52q42 27 78 -24q97 -135 160.5 -330.5t63.5 -434.5q0 -429 -233.5 -757t-427.5 -435q-50 -27 -71 -9z" />
<glyph unicode="*" horiz-adv-x="960" d="M186 863q-5 15 -5 29q0 52 76 82l215 84l-176 84q-44 21 -44 54q0 25 25 57l25 31q33 41 67 41q27 0 54 -25l142 -128l24 213q10 93 94 93h36q61 0 61 -49q0 -18 -9 -44l-74 -213l200 128q39 25 65 25q35 0 49 -42l11 -31q5 -15 5 -29q0 -52 -75 -81l-216 -84l178 -85 q44 -21 44 -53q0 -25 -26 -56l-25 -31q-33 -41 -68 -41q-26 0 -53 24l-142 128l-24 -212q-11 -94 -96 -94h-35q-60 0 -60 48q0 19 9 46l74 212l-201 -128q-39 -25 -66 -25q-34 0 -48 41z" />
<glyph unicode="+" horiz-adv-x="1280" d="M122 682v86q0 50 60 50h412v412q0 60 50 60h86q50 0 50 -60v-412h412q60 0 60 -50v-86q0 -50 -60 -50h-412v-412q0 -60 -50 -60h-86q-50 0 -50 60v412h-412q-60 0 -60 50z" />
<glyph unicode="," horiz-adv-x="668" d="M80 -253q-10 10 -10 22q0 23 39 53q37 29 60 74.5t36 103.5h-69q-56 0 -56 49q0 11 3 26l31 134q17 75 88 75h156q56 0 56 -47q0 -13 -4 -28l-31 -134q-25 -109 -59 -197t-123 -160q-29 -23 -51 -23q-18 0 -31 15z" />
<glyph unicode="-" horiz-adv-x="700" d="M48 496l26 114q12 50 71 50h474q51 0 51 -36q0 -6 -2 -14l-26 -114q-12 -50 -72 -50h-474q-50 0 -50 35q0 7 2 15z" />
<glyph unicode="." horiz-adv-x="668" d="M85 75l31 134q17 75 88 75h152q56 0 56 -47q0 -13 -4 -28l-31 -134q-17 -75 -87 -75h-152q-56 0 -56 49q0 11 3 26z" />
<glyph unicode="/" horiz-adv-x="856" d="M-185 -294l1063 1726q27 44 55 44q11 0 22 -6l82 -47q22 -13 22 -34q0 -17 -14 -40l-1064 -1726q-27 -44 -55 -44q-11 0 -21 6l-82 47q-22 13 -22 34q0 17 14 40z" />
<glyph unicode="0" d="M100 489q0 320 142.5 643.5t517.5 323.5q190 0 309 -116.5t119 -406.5q0 -320 -142.5 -643.5t-517.5 -323.5q-190 0 -309 116.5t-119 406.5zM396 449q0 -140 37.5 -202.5t112.5 -62.5q175 0 260.5 282t85.5 507q0 140 -37.5 202.5t-112.5 62.5q-175 0 -260.5 -282 t-85.5 -507z" />
<glyph unicode="1" horiz-adv-x="907" d="M293 1138q-18 48 52 76q64 26 140.5 73t128.5 97q58 56 98 56h159q61 0 47 -60l-305 -1320q-14 -60 -74 -60h-160q-60 0 -46 60l214 931q10 42 23 80h-4q-31 -37 -70.5 -60t-84.5 -39q-49 -17 -65 26z" />
<glyph unicode="2" d="M-17 65l11 48q12 52 72 103l372 315q189 160 333 308t144 236q0 95 -45 126t-106 31q-119 0 -191 -52t-126 -149q-32 -56 -64 -56q-10 0 -20 5l-95 49q-38 20 -38 54q0 18 10 40q69 146 195 239.5t366 93.5q195 0 304.5 -96.5t109.5 -265.5q0 -184 -218 -373l-342 -292 l-215 -179l-2 -6q61 4 101 4h433q62 0 62 -45q0 -9 -2 -20l-27 -118q-15 -65 -90 -65h-872q-63 0 -63 45q0 9 3 20z" />
<glyph unicode="3" d="M22 183l52 97q18 33 47 33q26 0 60 -24q56 -40 134.5 -69.5t175.5 -29.5q155 0 229.5 77t74.5 175q0 102 -63.5 159t-162.5 57h-65q-55 0 -55 37q0 7 2 16l26 110q13 55 77 55h50q124 0 208.5 64t84.5 156q0 60 -46.5 98t-151.5 38q-89 0 -155 -29t-116 -67 q-31 -23 -56 -23q-27 0 -47 28l-54 76q-14 20 -14 39q0 30 34 59q72 62 193.5 101.5t267.5 39.5q224 0 330.5 -102t106.5 -231q0 -145 -111.5 -234t-243.5 -111v-4q112 -26 186.5 -119t74.5 -228q0 -167 -145.5 -314t-476.5 -147q-114 0 -232.5 33t-192.5 96q-34 28 -34 58 q0 15 8 30z" />
<glyph unicode="4" d="M29 377l31 132q13 56 52 99l718 780q48 52 105 52h163q54 0 54 -43q0 -10 -3 -22l-188 -815h121q53 0 53 -43q0 -10 -3 -22l-27 -118q-15 -65 -79 -65h-122l-57 -247q-15 -65 -80 -65h-150q-53 0 -53 43q0 10 3 22l57 247h-545q-53 0 -53 43q0 10 3 22zM380 560h301 l83 357q9 40 22 80h-4z" />
<glyph unicode="5" d="M23 181l78 95q23 28 49 28q25 0 53 -25q55 -51 107.5 -70t154.5 -19q135 0 232 88t97 249q0 115 -52 145t-107 30q-53 0 -89.5 -10t-111.5 -57q-52 -33 -100 -33h-109q-53 0 -53 43q0 10 3 22l159 690q15 65 80 65h720q53 0 53 -43q0 -10 -3 -22l-27 -118 q-15 -65 -80 -65h-505l-57 -245q-10 -43 -27 -80h11q65 45 124 61t137 16q146 0 240 -104.5t94 -308.5q0 -213 -170.5 -380t-445.5 -167q-145 0 -256 29t-190 110q-22 23 -22 44q0 16 13 32z" />
<glyph unicode="6" d="M112 491q0 418 199 691.5t516 273.5q120 0 204.5 -21.5t152.5 -78.5q33 -28 33 -54q0 -15 -12 -30l-77 -99q-15 -20 -38.5 -20t-54.5 20q-54 35 -105.5 47t-111.5 12q-125 0 -237.5 -106t-163.5 -329h4q63 75 151 102t169 27q192 0 283.5 -107.5t91.5 -293.5 q0 -234 -166.5 -396.5t-420.5 -162.5q-220 0 -318.5 126.5t-98.5 398.5zM398 383q0 -104 48.5 -148.5t119.5 -44.5q102 0 176 106t74 254q0 80 -48 116t-108 36q-123 0 -192.5 -102t-69.5 -217z" />
<glyph unicode="7" horiz-adv-x="1112" d="M224 59l6 27q89 403 271.5 652t395.5 436l1 4q-41 -4 -81 -4h-518q-53 0 -53 43q0 10 3 22l27 118q15 65 80 65h816q53 0 53 -43q0 -10 -3 -22l-26 -113q-12 -53 -75 -107q-252 -216 -388 -442t-215 -574l-14 -62q-15 -65 -80 -65h-150q-53 0 -53 44q0 9 3 21z" />
<glyph unicode="8" d="M54 331q0 185 118.5 302t259.5 134v5q-63 29 -119.5 86t-56.5 167q0 184 149 307.5t369 123.5q238 0 335.5 -95t97.5 -238q0 -145 -111.5 -235t-209.5 -116v-5q83 -38 144 -105.5t61 -218.5q0 -176 -145.5 -326.5t-419.5 -150.5q-223 0 -347.5 82t-124.5 283zM354 381 q0 -115 51 -153t141 -38q100 0 172.5 74.5t72.5 188.5q0 84 -40 137.5t-126 53.5q-115 0 -193 -84t-78 -179zM548 1035q0 -83 41 -116t94 -33q118 0 175 64t57 143q0 63 -41.5 101t-119.5 38q-86 0 -146 -56t-60 -141z" />
<glyph unicode="9" d="M82 150l77 99q16 20 39 20t54 -20q54 -35 105.5 -47t111.5 -12q125 0 237.5 106t163.5 329h-4q-63 -75 -151 -102t-169 -27q-192 0 -283.5 107.5t-91.5 293.5q0 234 166.5 396.5t420.5 162.5q220 0 318.5 -126.5t98.5 -398.5q0 -418 -199 -691.5t-516 -273.5 q-120 0 -204.5 21.5t-152.5 78.5q-33 28 -33 54q0 15 12 30zM471 872q0 -80 48 -116t108 -36q123 0 192.5 102t69.5 217q0 104 -48.5 148.5t-119.5 44.5q-102 0 -176 -106t-74 -254z" />
<glyph unicode=":" horiz-adv-x="668" d="M85 75l31 134q17 75 88 75h152q56 0 56 -47q0 -13 -4 -28l-31 -134q-17 -75 -87 -75h-152q-56 0 -56 49q0 11 3 26zM262 841l31 134q17 75 88 75h152q56 0 56 -47q0 -13 -4 -28l-31 -134q-17 -75 -87 -75h-152q-56 0 -56 49q0 11 3 26z" />
<glyph unicode=";" horiz-adv-x="668" d="M80 -253q-10 10 -10 22q0 23 39 53q37 29 60 74.5t36 103.5h-69q-56 0 -56 49q0 11 3 26l31 134q17 75 88 75h156q56 0 56 -47q0 -13 -4 -28l-31 -134q-25 -109 -59 -197t-123 -160q-29 -23 -51 -23q-18 0 -31 15zM262 841l31 134q17 75 88 75h152q56 0 56 -47 q0 -13 -4 -28l-31 -134q-17 -75 -87 -75h-152q-56 0 -56 49q0 11 3 26z" />
<glyph unicode="&#x3c;" horiz-adv-x="1327" d="M135 689v92q0 34 40 55l941 501q21 11 37 11q25 0 40 -27l37 -71q7 -13 7 -25q0 -28 -36 -47l-834 -442v-2l834 -442q36 -19 36 -47q0 -12 -7 -25l-37 -71q-15 -27 -40 -27q-16 0 -37 11l-941 501q-40 21 -40 55z" />
<glyph unicode="=" horiz-adv-x="1280" d="M122 512v86q0 50 60 50h1010q60 0 60 -50v-86q0 -50 -60 -50h-1010q-60 0 -60 50zM122 852v86q0 50 60 50h1010q60 0 60 -50v-86q0 -50 -60 -50h-1010q-60 0 -60 50z" />
<glyph unicode="&#x3e;" horiz-adv-x="1327" d="M144 220q-23 44 29 72l834 442v2l-834 442q-52 28 -29 72l37 71q24 44 77 16l941 -501q40 -21 40 -55v-92q0 -34 -40 -55l-941 -501q-53 -28 -77 16z" />
<glyph unicode="?" horiz-adv-x="1106" d="M245 1266q67 72 178 137t281 65q196 0 314 -72.5t118 -237.5q0 -210 -217 -370t-250 -294l-4 -16q-16 -65 -80 -65h-150q-53 0 -53 43q0 10 3 22l7 30q52 222 248 365.5t196 260.5q0 46 -34 78t-118 32q-70 0 -137 -41.5t-113 -97.5q-28 -34 -55 -34q-17 0 -34 15l-87 78 q-33 30 -33 58q0 23 20 44zM286 75l31 134q17 75 88 75h152q56 0 56 -47q0 -13 -4 -28l-31 -134q-17 -75 -87 -75h-152q-56 0 -56 49q0 11 3 26z" />
<glyph unicode="@" horiz-adv-x="2074" d="M112 564q0 400 263.5 668t687.5 268q388 0 643.5 -212t255.5 -588q0 -294 -143.5 -447t-379.5 -153q-102 0 -164 33.5t-86 137.5h-2q-61 -77 -129 -124t-186 -47q-117 0 -212.5 88t-95.5 299q0 227 151.5 391.5t359.5 164.5q140 0 191 -146h4l14 61q11 48 59 48h139 q41 0 41 -34q0 -8 -2 -18l-120 -532q-11 -50 -11 -82q0 -15 2 -26q9 -34 58 -34q145 0 234.5 98t89.5 283q0 311 -187.5 484t-523.5 173q-332 0 -547.5 -213t-215.5 -535q0 -326 213.5 -536t547.5 -210q150 0 263.5 23t257.5 103q24 13 39 13q13 0 20 -10l62 -93 q10 -16 10 -29q0 -22 -26 -37q-148 -88 -323.5 -120t-313.5 -32q-403 0 -670.5 263t-267.5 659zM806 433q0 -67 32 -110t86 -43q93 0 175 96.5t97 205.5q9 66 9 122q0 64 -36 111.5t-90 47.5q-92 0 -182.5 -106t-90.5 -324z" />
<glyph unicode="A" horiz-adv-x="1394" d="M-63 66l764 1287q48 81 111 81h140q63 0 77 -81l216 -1287q1 -9 1 -16q0 -50 -62 -50h-139q-66 0 -77 69l-45 269h-508l-159 -269q-41 -69 -107 -69h-179q-47 0 -47 28q0 15 14 38zM561 586h322l-56 318q-8 47 -8 77.5t6 79.5h-4q-16 -49 -25.5 -74t-44.5 -83z" />
<glyph unicode="B" horiz-adv-x="1379" d="M57 75l297 1284q17 75 97 75h320q297 0 422 -99t125 -259q0 -156 -125 -236t-245 -90v-3q116 -11 210 -89t94 -235q0 -179 -184 -301t-538 -122h-410q-66 0 -66 51q0 11 3 24zM388 244h166q230 0 308 46t78 162q0 92 -75.5 129t-263.5 37h-126zM529 854h151q160 0 251 59 t91 143q0 76 -65 105t-239 29h-111z" />
<glyph unicode="C" horiz-adv-x="1404" d="M100 588q0 348 202 614t590 266q180 0 306 -62.5t182 -154.5q40 -66 -17 -104l-124 -83q-46 -31 -96 36q-50 66 -125 99t-147 33q-211 0 -335 -192t-124 -490q0 -151 78 -249.5t267 -98.5q108 0 180 41.5t113 98.5q53 73 100 47l127 -70q62 -34 18 -98 q-76 -110 -217 -182.5t-342 -72.5q-300 0 -468 153.5t-168 468.5z" />
<glyph unicode="D" horiz-adv-x="1402" d="M57 75l297 1284q17 75 87 75h299q358 0 514 -165t156 -438q0 -360 -227 -595.5t-694 -235.5h-379q-56 0 -56 49q0 11 3 26zM389 248h138q301 0 436 160t135 444q0 153 -73.5 244.5t-340.5 91.5h-78z" />
<glyph unicode="E" horiz-adv-x="1280" d="M57 75l297 1284q17 75 87 75h858q63 0 63 -45q0 -9 -3 -20l-27 -118q-15 -65 -90 -65h-636l-74 -318h583q63 0 63 -45q0 -9 -3 -20l-27 -118q-15 -65 -90 -65h-583l-86 -372h668q63 0 63 -45q0 -9 -3 -20l-27 -118q-15 -65 -90 -65h-890q-56 0 -56 49q0 11 3 26z" />
<glyph unicode="F" horiz-adv-x="1176" d="M57 75l297 1284q17 75 87 75h791q62 0 62 -45q0 -9 -2 -20l-27 -118q-15 -65 -90 -65h-569l-81 -348h487q62 0 62 -45q0 -9 -2 -20l-27 -118q-15 -65 -90 -65h-487l-119 -515q-17 -75 -87 -75h-152q-56 0 -56 49q0 11 3 26z" />
<glyph unicode="G" horiz-adv-x="1510" d="M100 588q0 363 200.5 621.5t601.5 258.5q180 0 311 -57.5t187 -149.5q40 -66 -17 -104l-124 -83q-46 -31 -96 36q-50 66 -130 94t-152 28q-224 0 -346.5 -178t-122.5 -504q0 -151 73 -249.5t281 -98.5q93 0 171 31t141 79l38 164h-217q-75 0 -60 65l27 118q15 65 90 65 h434q75 0 60 -65l-120 -521q-123 -72 -274.5 -122t-310.5 -50q-298 0 -471.5 153.5t-173.5 468.5z" />
<glyph unicode="H" horiz-adv-x="1442" d="M57 75l297 1284q17 75 87 75h152q56 0 56 -49q0 -12 -3 -26l-113 -489h538l113 489q17 75 87 75h152q56 0 56 -49q0 -12 -3 -26l-297 -1284q-17 -75 -87 -75h-152q-56 0 -56 49q0 12 3 26l127 547h-538l-127 -547q-17 -75 -87 -75h-152q-56 0 -56 49q0 11 3 26z" />
<glyph unicode="I" horiz-adv-x="612" d="M57 75l297 1284q17 75 87 75h152q56 0 57 -49q0 -12 -4 -26l-297 -1284q-17 -75 -87 -75h-152q-56 0 -56 49q0 11 3 26z" />
<glyph unicode="J" horiz-adv-x="947" d="M-48 97l50 134q12 31 39 31q21 0 51 -19q64 -41 136 -41q115 0 173 80.5t97 248.5l191 828q17 75 87 75h152q56 0 56 -49q0 -11 -3 -26l-187 -808q-85 -368 -225 -476.5t-362 -108.5q-141 0 -233 56q-28 17 -28 46q0 13 6 29z" />
<glyph unicode="K" horiz-adv-x="1361" d="M57 75l297 1284q17 75 87 75h152q56 0 56 -49q0 -12 -3 -26l-85 -366q-14 -58 -38 -120h7l573 502q67 59 106 59h240q63 0 63 -25q0 -21 -45 -61l-573 -503l309 -759q10 -24 10 -41q0 -45 -68 -45h-156q-52 0 -76 59l-240 593l-239 -209l-85 -368q-17 -75 -87 -75h-152 q-56 0 -56 49q0 11 3 26z" />
<glyph unicode="L" horiz-adv-x="1162" d="M57 75l297 1284q17 75 87 75h162q47 0 47 -46q0 -13 -4 -29l-257 -1111h583q62 0 62 -45q0 -9 -2 -20l-27 -118q-15 -65 -90 -65h-805q-56 0 -56 49q0 11 3 26z" />
<glyph unicode="M" horiz-adv-x="1828" d="M57 75l297 1284q17 75 87 75h276q59 0 65 -80l68 -877q4 -48 4 -79q0 -9 -1 -17q-2 -34 -7 -84h6q17 50 31.5 86t46.5 94l474 877q43 80 101 80h304q56 0 56 -49q0 -12 -3 -26l-297 -1284q-17 -75 -87 -75h-152q-56 0 -56 49q0 12 3 26l191 826q14 59 33 120h-7 l-506 -940q-44 -81 -105 -81h-170q-61 0 -67 81l-72 940h-7q-9 -58 -23 -120l-191 -826q-17 -75 -87 -75h-152q-56 0 -56 49q0 11 3 26z" />
<glyph unicode="N" horiz-adv-x="1472" d="M57 75l297 1284q17 75 87 75h135q86 0 114 -70l329 -840h7q9 60 23 120l165 715q17 75 87 75h152q56 0 56 -49q0 -12 -3 -26l-297 -1284q-17 -75 -87 -75h-125q-86 0 -114 70l-335 856h-7q-9 -60 -23 -120l-169 -731q-17 -75 -87 -75h-152q-56 0 -56 49q0 11 3 26z" />
<glyph unicode="O" horiz-adv-x="1532" d="M104 587q0 370 213 625.5t563 255.5q300 0 469 -155.5t169 -465.5q0 -370 -213 -625.5t-563 -255.5q-300 0 -469 155.5t-169 465.5zM416 545q0 -160 85 -251.5t255 -91.5q200 0 325 188.5t125 498.5q0 160 -85 251.5t-255 91.5q-200 0 -325 -188.5t-125 -498.5z" />
<glyph unicode="P" horiz-adv-x="1328" d="M57 75l297 1284q17 75 87 75h354q281 0 417 -93t136 -294q0 -227 -180 -369t-540 -142h-172l-107 -461q-17 -75 -87 -75h-152q-56 0 -56 49q0 11 3 26zM512 780h171q209 0 289 66t80 165q0 102 -68 140.5t-246 38.5h-131z" />
<glyph unicode="Q" horiz-adv-x="1532" d="M104 587q0 370 213 625.5t563 255.5q300 0 469 -155.5t169 -465.5q0 -369 -213 -625q-165 -198 -413 -243q6 -90 38 -135.5t139 -45.5q50 0 104 17q14 4 25 4q26 0 33 -26l33 -116q2 -6 2 -12q0 -26 -38 -38q-103 -34 -221 -34q-217 0 -308.5 102t-99.5 281 q-200 30 -326 146q-169 156 -169 465zM416 545q0 -160 85 -251.5t255 -91.5q200 0 325 188.5t125 498.5q0 160 -85 251.5t-255 91.5q-200 0 -325 -188.5t-125 -498.5z" />
<glyph unicode="R" horiz-adv-x="1428" d="M57 75l297 1284q17 75 87 75h410q301 0 428.5 -94.5t127.5 -262.5q0 -160 -130.5 -279.5t-368.5 -150.5v-2q79 -33 114 -96t56 -116l134 -347q9 -23 9 -40q0 -46 -67 -46h-153q-55 0 -76 59l-119 337q-27 77 -92.5 130t-153.5 53h-94l-117 -504q-17 -75 -87 -75h-152 q-56 0 -56 49q0 11 3 26zM523 827h209q144 0 266.5 56t122.5 166q0 88 -86.5 114.5t-240.5 26.5h-187z" />
<glyph unicode="S" horiz-adv-x="1299" d="M64 212l87 107q19 23 45 23q29 0 66 -28q56 -42 143.5 -77t189.5 -35t166.5 27t92 70t27.5 98q0 39 -20.5 76t-57 57t-83.5 37l-117 44q-57 22 -135 61q-63 31 -106.5 63.5t-82.5 108.5t-39 191q0 127 85.5 242.5t212 153t261.5 37.5q136 0 253.5 -37t175.5 -94 q35 -35 35 -64q0 -19 -14 -35l-88 -100q-21 -24 -47 -24q-28 0 -63 27q-51 41 -122 66t-156 25t-134.5 -18t-79 -60t-29.5 -86q0 -35 12 -67.5t37 -59.5t71 -49q64 -30 147 -54.5t136 -46.5q78 -32 134.5 -84.5t83 -126.5t26.5 -164q0 -124 -65.5 -219t-198.5 -163t-354 -68 q-178 0 -280.5 33.5t-194.5 114.5q-35 31 -35 60q0 19 15 38z" />
<glyph unicode="T" horiz-adv-x="1246" d="M201 1243l29 126q15 65 90 65h1028q62 0 62 -45q0 -9 -2 -20l-29 -126q-15 -65 -90 -65h-368l-259 -1123q-13 -55 -63 -55h-192q-40 0 -40 35q0 9 3 20l259 1123h-368q-63 0 -63 45q1 9 3 20z" />
<glyph unicode="U" horiz-adv-x="1422" d="M178 597l180 782q13 55 83 55h152q70 0 57 -55l-178 -772q-62 -268 -7 -336.5t172 -68.5q101 0 199.5 82.5t153.5 322.5l178 772q13 55 83 55h152q70 0 57 -55l-180 -782q-84 -364 -238 -497.5t-435 -133.5q-241 0 -373.5 148.5t-55.5 482.5z" />
<glyph unicode="V" horiz-adv-x="1370" d="M239 1368q-9 66 62 66h139q67 0 76 -69l113 -835q7 -60 7 -84t-7 -73h4q17 49 27.5 74t44.5 83l499 835q41 69 108 69h179q72 0 32 -66l-775 -1287q-49 -81 -113 -81h-140q-64 0 -75 81z" />
<glyph unicode="W" horiz-adv-x="2022" d="M238 1354q-3 80 64 80h170q47 0 48 -66l8 -786q1 -91 0.5 -120t-11.5 -99h5q21 70 34.5 106.5t56.5 118.5l401 772q38 74 101 74h184q63 0 67 -74l45 -772q5 -84 1.5 -119.5t-14.5 -105.5h5q21 70 41 113l48 106l372 786q31 66 78 66h200q68 0 28 -80l-631 -1257 q-49 -97 -116 -97h-175q-58 0 -63 96l-46 838q-4 70 -2.5 89.5t9.5 75.5h-2q-18 -56 -26.5 -77.5t-42.5 -87.5l-434 -838q-50 -96 -107 -96h-175q-68 0 -72 97z" />
<glyph unicode="X" horiz-adv-x="1392" d="M-30 86l624 678l-297 584q-13 26 -13 44q0 42 71 42h176q51 0 76 -59l175 -417l338 417q48 59 104 59h235q54 0 54 -26q0 -21 -36 -60l-579 -626l324 -636q13 -26 13 -44q0 -42 -71 -42h-179q-51 0 -76 59l-200 469l-379 -469q-48 -59 -104 -59h-238q-53 0 -53 26 q0 21 35 60z" />
<glyph unicode="Y" horiz-adv-x="1368" d="M242 1348q-31 86 67 86h145q52 0 76 -69l127 -371l35 -109q19 -57 19 -137h4q19 71 64 130l90 116l299 371q56 69 108 69h205q98 0 27 -86l-677 -823l-108 -470q-13 -55 -83 -55h-152q-70 0 -57 55l108 470z" />
<glyph unicode="Z" horiz-adv-x="1252" d="M-44 65l19 82q17 72 83 143l836 894l2 7q-61 -5 -121 -5h-445q-62 0 -62 45q0 9 2 20l27 118q15 65 90 65h912q63 0 63 -45q0 -9 -3 -20l-15 -67q-12 -55 -59 -105l-887 -947l-2 -7q61 5 121 5h536q63 0 63 -45q0 -9 -3 -20l-27 -118q-15 -65 -90 -65h-980q-62 0 -62 45 q0 9 2 20z" />
<glyph unicode="[" horiz-adv-x="694" d="M-40 -348l412 1784q14 60 73 60h348q51 0 51 -36q0 -6 -2 -14l-23 -100q-12 -50 -72 -50h-128l-347 -1504h128q50 0 50 -35q0 -7 -2 -15l-23 -100q-12 -50 -71 -50h-348q-49 0 -49 39q0 10 3 21z" />
<glyph unicode="\" horiz-adv-x="856" d="M138 1365q-14 59 35 74l80 25q49 15 62 -38l423 -1736q14 -59 -35 -74l-80 -25q-49 -15 -62 38z" />
<glyph unicode="]" horiz-adv-x="694" d="M-137 -358l23 100q12 50 72 50h128l347 1504h-128q-50 0 -50 35q0 7 2 15l23 100q12 50 71 50h348q49 0 49 -39q0 -10 -3 -21l-412 -1784q-14 -60 -73 -60h-348q-51 0 -51 36q0 6 2 14z" />
<glyph unicode="^" horiz-adv-x="920" d="M180 1007l290 398q26 36 72 36h36q46 0 72 -36l290 -398q17 -23 17 -41q0 -22 -22 -37l-62 -44q-15 -11 -30 -11q-24 0 -45 30l-237 329h-2l-237 -329q-21 -30 -45 -30q-15 0 -30 11l-62 44q-21 15 -21 37q0 18 16 41z" />
<glyph unicode="_" d="M-220 -275q0 50 60 50h1130q60 0 60 -50v-100q0 -50 -60 -50h-1130q-60 0 -60 50v100z" />
<glyph unicode="`" horiz-adv-x="614" d="M328 1376q-49 59 35 59h152q72 0 95 -47l87 -179q29 -59 -35 -59h-86q-61 0 -92 37z" />
<glyph unicode="a" horiz-adv-x="1178" d="M62 379q0 281 182.5 486t407.5 205q45 0 104 -23t107 -93h4l17 36q28 60 67 60h153q50 0 50 -40q0 -9 -3 -20l-215 -930q-14 -60 -74 -60h-153q-47 0 -47 42q0 8 2 18l14 78h-4q-59 -72 -125 -115t-151 -43q-159 0 -247.5 121t-88.5 278zM358 360q0 -86 38.5 -135 t86.5 -49q86 0 162.5 86.5t117.5 259.5l37 158q0 91 -33 142.5t-119 51.5q-124 0 -207 -158t-83 -356z" />
<glyph unicode="b" horiz-adv-x="1192" d="M30 60l313 1356q14 60 74 60h160q49 0 49 -39q0 -9 -3 -21l-97 -424q-9 -41 -23 -80h4q72 86 129 122t130 36q198 0 280.5 -130t82.5 -289q0 -263 -160.5 -467t-372.5 -204q-72 0 -150 19t-128 97h-4l-12 -36q-20 -60 -68 -60h-158q-49 0 -49 39q0 10 3 21zM381 370 q0 -96 33.5 -145t133.5 -49q135 0 210 152t75 342q0 104 -38.5 154t-106.5 50q-70 0 -150.5 -89t-119.5 -257z" />
<glyph unicode="c" horiz-adv-x="1086" d="M58 412q0 232 168 445t447 213q149 0 227 -45t129 -119q29 -42 -17 -73l-109 -73q-39 -26 -77 30q-21 31 -57 57.5t-106 26.5q-113 0 -211 -126t-98 -361q0 -105 49 -158t133 -53q78 0 127.5 33t96.5 92q37 46 81 5l81 -75q39 -36 -2 -88q-39 -50 -137.5 -106.5 t-264.5 -56.5q-260 0 -360 128.5t-100 303.5z" />
<glyph unicode="d" horiz-adv-x="1192" d="M66 399q0 263 160.5 467t372.5 204q72 0 150 -19t128 -97h4q4 31 15 80l87 382q14 60 74 60h160q49 0 49 -39q0 -9 -3 -21l-313 -1356q-14 -60 -74 -60h-158q-42 0 -42 41q0 9 2 19l14 78h-4q-72 -86 -129 -122t-130 -36q-198 0 -280.5 130t-82.5 289zM362 380 q0 -104 38.5 -154t106.5 -50q70 0 150.5 89t119.5 257l37 158q0 96 -33.5 145t-133.5 49q-135 0 -210 -152t-75 -342z" />
<glyph unicode="e" horiz-adv-x="1150" d="M58 415q0 231 165 443t456 212q201 0 313 -90t112 -206q0 -192 -142.5 -252t-395.5 -104l-209 -36q-1 -13 -1 -28q0 -64 35 -121t161 -57q72 0 147 27.5t120 61.5q26 20 46.5 19.5t34.5 -19.5l59 -78q16 -21 16 -41q0 -24 -24 -47q-65 -60 -170 -89.5t-247 -29.5 q-276 0 -376 127t-100 308zM370 570l219 36q105 17 191.5 50.5t86.5 94.5q0 55 -52.5 89t-132.5 34q-127 0 -202.5 -88t-109.5 -216z" />
<glyph unicode="f" horiz-adv-x="682" d="M-41 -340l274 1190h-56q-49 0 -49 35q0 7 2 15l23 100q12 50 70 50h56l33 140q38 163 139 234.5t281 71.5q59 0 105 -11.5t84 -26.5q24 -10 24 -31q0 -10 -5 -22l-45 -108q-10 -25 -49 -13q-29 9 -64 12.5t-58 3.5q-84 0 -107.5 -58t-47.5 -152l-10 -40h132q50 0 50 -35 q0 -7 -2 -15l-23 -100q-12 -50 -71 -50h-132l-274 -1190q-14 -60 -74 -60h-160q-49 0 -49 39q0 10 3 21z" />
<glyph unicode="g" horiz-adv-x="1192" d="M-18 -263l43 73q17 29 44 29q16 0 34 -9q37 -19 94 -36.5t143 -17.5q108 0 198 48t125 207l8 36q8 36 23 80h-4q-72 -86 -129 -122t-130 -36q-198 0 -281.5 133.5t-83.5 279.5q0 260 160.5 464t372.5 204q72 0 150 -19t128 -97h4l12 36q20 60 67 60h158q50 0 50 -40 q0 -9 -3 -20l-226 -979q-54 -234 -198.5 -332.5t-415.5 -98.5q-115 0 -183.5 17t-150.5 61q-24 12 -24 36q0 18 15 43zM362 383q0 -89 39.5 -143.5t107.5 -54.5q70 0 151 91.5t117 245.5l37 158q0 96 -33.5 145t-133.5 49q-135 0 -210 -152t-75 -339z" />
<glyph unicode="h" d="M30 60l313 1356q14 60 74 60h160q49 0 49 -39q0 -9 -3 -21l-97 -424q-9 -41 -23 -80h5q80 94 152.5 126t172.5 32q145 0 228 -107q50 -64 50 -176q0 -76 -23 -173l-128 -554q-14 -60 -74 -60h-160q-49 0 -49 39q0 9 3 21l111 482q33 142 33 216q0 36 -8 56 q-24 60 -107 60q-105 0 -186 -117t-130 -333l-83 -364q-14 -60 -74 -60h-160q-49 0 -49 39q0 10 3 21z" />
<glyph unicode="i" horiz-adv-x="552" d="M30 60l215 930q14 60 73 60h160q49 0 49 -41q0 -9 -2 -19l-215 -930q-14 -60 -74 -60h-160q-49 0 -49 39q0 10 3 21zM308 1264l29 128q14 60 74 60h160q49 0 48 -39q0 -9 -2 -21l-29 -128q-14 -60 -74 -60h-160q-49 0 -49 39q0 10 3 21z" />
<glyph unicode="j" horiz-adv-x="562" d="M-307 -349l37 106q10 29 41 29q6 0 13 -1q49 -9 67 -9q73 0 113 65t68 185l223 964q14 60 73 60h160q50 0 50 -40q0 -9 -3 -20l-230 -994q-57 -248 -168 -332t-282 -84q-90 0 -141 15q-26 8 -26 32q0 10 5 24zM318 1264l29 128q14 60 74 60h160q49 0 49 -39q0 -10 -3 -21 l-29 -128q-14 -60 -74 -60h-160q-49 0 -49 39q0 10 3 21z" />
<glyph unicode="k" horiz-adv-x="1119" d="M30 60l313 1356q14 60 74 60h160q49 0 49 -39q0 -9 -3 -21l-161 -697q-9 -38 -22 -80h4l378 370q42 41 87 41h191q49 0 49 -22q0 -18 -35 -52l-386 -371l223 -531q9 -21 9 -36q0 -38 -57 -38h-143q-49 0 -70 52l-152 378l-183 -173l-45 -197q-14 -60 -74 -60h-160 q-49 0 -49 39q0 10 3 21z" />
<glyph unicode="l" horiz-adv-x="552" d="M30 60l273 1181q10 45 39 82l109 135q31 38 60 38h70q49 0 49 -41q0 -9 -2 -19l-318 -1376q-14 -60 -74 -60h-160q-49 0 -49 39q0 10 3 21z" />
<glyph unicode="m" horiz-adv-x="1750" d="M30 60l215 930q14 60 73 60h158q49 0 49 -41q0 -9 -2 -19l-21 -90h4q46 69 118 119.5t148 50.5q125 0 179.5 -71.5t54.5 -159.5h4q73 112 163 171.5t219 59.5q135 0 219 -106q49 -62 49 -175q0 -81 -25 -189l-125 -540q-14 -60 -74 -60h-160q-49 0 -49 39q0 9 3 21 l106 460q35 153 35 236q0 19 -2 35q-10 83 -85 83q-70 0 -147 -81.5t-146 -380.5l-81 -352q-14 -60 -74 -60h-160q-49 0 -49 39q0 9 3 21l101 440q39 171 39 258q0 18 -2 31q-9 84 -84 85q-69 0 -153 -110t-140 -352l-81 -352q-14 -60 -74 -60h-160q-49 0 -49 39q0 10 3 21z " />
<glyph unicode="n" d="M30 60l215 930q14 60 73 60h158q50 0 50 -39q0 -9 -3 -21l-19 -78h4q80 94 152.5 126t172.5 32q145 0 228 -107q50 -64 50 -176q0 -76 -23 -173l-128 -554q-14 -60 -74 -60h-160q-49 0 -49 39q0 9 3 21l111 482q33 142 33 216q0 36 -8 56q-24 60 -107 60 q-105 0 -186 -117t-130 -333l-83 -364q-14 -60 -74 -60h-160q-49 0 -49 39q0 10 3 21z" />
<glyph unicode="o" horiz-adv-x="1206" d="M58 412q0 225 166 441.5t466 216.5q260 0 360 -128.5t100 -303.5q0 -225 -166 -441.5t-466 -216.5q-260 0 -360 128.5t-100 303.5zM354 387q0 -100 48.5 -155.5t133.5 -55.5q125 0 221.5 128.5t96.5 358.5q0 100 -48.5 155.5t-133.5 55.5q-125 0 -221.5 -128.5 t-96.5 -358.5z" />
<glyph unicode="p" horiz-adv-x="1192" d="M-62 -340l307 1330q14 60 73 60h158q43 0 43 -41q0 -9 -2 -19l-14 -78h4q72 86 129 122t130 36q198 0 280.5 -130t82.5 -289q0 -263 -160.5 -467t-372.5 -204q-72 0 -150 19t-128 97h-4q-5 -42 -14 -80l-82 -356q-14 -60 -74 -60h-160q-49 0 -49 39q0 10 3 21zM381 370 q0 -96 33.5 -145t133.5 -49q135 0 210 152t75 342q0 104 -38.5 154t-106.5 50q-70 0 -150.5 -89t-119.5 -257z" />
<glyph unicode="q" horiz-adv-x="1192" d="M66 399q0 263 160.5 467t372.5 204q72 0 150 -19t128 -97h4l12 36q20 60 67 60h158q50 0 50 -40q0 -9 -3 -20l-307 -1330q-14 -60 -74 -60h-160q-49 0 -49 39q0 10 3 21l92 398q10 43 22 80h-4q-72 -86 -129 -122t-130 -36q-198 0 -280.5 130t-82.5 289zM362 380 q0 -104 38.5 -154t106.5 -50q70 0 150.5 89t119.5 257l37 158q0 96 -33.5 145t-133.5 49q-135 0 -210 -152t-75 -342z" />
<glyph unicode="r" horiz-adv-x="786" d="M30 60l215 930q14 60 73 60h154q50 0 50 -40q0 -9 -3 -20l-28 -123h4q42 85 114 144t160 59q58 0 92 -14q20 -8 20 -28q0 -9 -4 -20l-44 -119q-11 -29 -36 -29q-10 0 -23 5q-24 9 -54 9q-90 0 -187.5 -136t-156.5 -391l-66 -287q-14 -60 -74 -60h-160q-49 0 -49 39 q0 10 3 21z" />
<glyph unicode="s" horiz-adv-x="1005" d="M21 149l54 90q12 21 35 21q21 0 50 -18q54 -34 129 -50t139 -16q66 0 107 19t57 46t16 61q0 24 -9 44t-32 36t-54 28q-61 24 -94 39l-78 33q-70 30 -107.5 68t-55 84t-17.5 115q0 101 60.5 181t157.5 110t235 30q86 0 167 -26t131 -57q35 -22 35 -48q0 -17 -14 -36 l-63 -82q-13 -17 -34 -17q-23 0 -56 20q-30 18 -83 34t-102 16q-35 0 -71 -8t-61 -34.5t-25 -63.5q0 -24 7 -44t29.5 -41t48.5 -32q43 -18 84 -33t91 -38q67 -31 108 -70t60 -85.5t19 -112.5q0 -99 -71.5 -186.5t-173 -116.5t-219.5 -29q-141 0 -225 19.5t-156 72.5 q-29 21 -29 46q0 15 10 31z" />
<glyph unicode="t" horiz-adv-x="798" d="M130 350l115 500h-68q-49 0 -49 35q0 7 2 15l23 100q12 50 70 50h68l8 35q10 45 40 82l109 135q30 38 60 38h70q49 0 49 -41q0 -9 -2 -19l-54 -230h162q50 0 50 -36q0 -7 -2 -14l-23 -100q-12 -50 -71 -50h-162l-114 -496q-15 -64 -15 -109q0 -17 2 -31q8 -51 59 -51 q31 0 69 7.5t63 17.5q36 15 40 -23l16 -114v-6q0 -29 -37 -44q-36 -15 -100 -24.5t-122 -9.5q-184 -1 -241 101q-33 58 -33 143q0 63 18 139z" />
<glyph unicode="u" horiz-adv-x="1194" d="M115 436l128 554q14 60 73 60h160q60 0 47 -60l-112 -482q-49 -212 -24.5 -272t104.5 -60q101 0 182.5 119t132.5 340l81 355q14 60 73 60h160q60 0 47 -60l-215 -930q-14 -60 -74 -60h-158q-61 0 -46 60l21 87h-4q-80 -94 -152.5 -130.5t-172.5 -36.5q-142 0 -224.5 107 t-26.5 349z" />
<glyph unicode="v" horiz-adv-x="1008" d="M146 972q-7 78 51 78h161q47 0 49 -51l19 -586q2 -49 -0.5 -97t-7.5 -78h6q9 30 28.5 78t43.5 97l291 586q25 51 71 51h197q58 0 15 -78l-499 -905q-37 -67 -88 -67h-198q-52 0 -58 67z" />
<glyph unicode="w" horiz-adv-x="1604" d="M146 972q-4 78 51 78h157q48 0 49 -51l-1 -586q0 -57 -1.5 -101t-6.5 -74h6q9 30 27.5 75t44.5 100l278 586q24 51 71 51h182q48 0 49 -51l6 -586q1 -55 -1 -100t-7 -75h6q9 30 27 74l45 101l271 586q24 51 71 51h181q55 0 15 -78l-469 -905q-35 -67 -88 -67h-181 q-57 0 -58 67l-8 593q-1 59 1 86t8 65h-4q-11 -38 -21.5 -65t-39.5 -86l-282 -593q-32 -67 -88 -67h-181q-54 0 -58 67z" />
<glyph unicode="x" horiz-adv-x="1046" d="M-52 73l454 499l-197 405q-10 21 -10 36q0 37 62 37h166q45 0 59 -40l90 -259l190 259q29 40 77 40h222q49 0 49 -23q0 -18 -29 -50l-401 -438l224 -466q10 -21 10 -36q0 -37 -63 -37h-165q-44 0 -59 40l-119 318l-240 -318q-30 -40 -77 -40h-224q-48 0 -48 23 q0 18 29 50z" />
<glyph unicode="y" horiz-adv-x="1194" d="M20 -270l49 78q17 28 43 28q14 0 30 -8q68 -35 116 -43.5t114 -8.5q105 0 179 44.5t123 255.5q10 44 23 80h-4q-80 -94 -152.5 -130.5t-172.5 -36.5q-142 0 -224 107q-50 64 -50 175q0 76 23 174l126 545q14 60 73 60h160q50 0 50 -40q0 -9 -3 -20l-112 -482 q-31 -133 -31 -205q0 -37 8 -58q25 -60 105 -60q101 0 183 119.5t130 330.5l81 355q14 60 73 60h160q50 0 50 -40q0 -9 -3 -20l-228 -979q-53 -229 -194.5 -330t-402.5 -101q-63 0 -145.5 10.5t-160.5 52.5q-31 16 -31 44q0 19 15 43z" />
<glyph unicode="z" horiz-adv-x="964" d="M-56 50l17 76q11 49 66 108l574 616l1 4q-41 -4 -81 -4h-309q-50 0 -50 36q0 7 2 14l7 32q26 118 87 118h692q51 0 51 -36q0 -7 -2 -14l-16 -70q-12 -54 -68 -114l-573 -616l-1 -4q54 4 81 4h356q51 0 51 -36q0 -7 -2 -14l-23 -100q-12 -50 -72 -50h-740q-50 0 -50 36 q0 6 2 14z" />
<glyph unicode="{" horiz-adv-x="829" d="M81 503l19 82q14 59 63 59q83 0 144 74t93 213l66 285q39 170 118.5 225t353.5 55q51 0 51 -36q0 -6 -2 -14l-23 -100q-12 -50 -72 -50q-80 0 -113.5 -41t-50.5 -116l-59 -255q-40 -175 -111.5 -247.5t-207.5 -91.5l-1 -2q104 -39 149 -122q24 -45 24 -114 q0 -58 -17 -133l-52 -225q-15 -67 -15 -105v-13q3 -39 107 -39q50 0 50 -35q0 -7 -2 -15l-23 -100q-12 -50 -71 -50q-235 0 -302 88q-41 54 -41 143q0 57 17 129l48 205q24 101 24 162q0 58 -21 80q-44 45 -107 45q-39 0 -39 36q0 10 3 23z" />
<glyph unicode="|" horiz-adv-x="630" d="M217 -380v1816q0 60 50 60h100q50 0 50 -60v-1816q0 -60 -50 -60h-100q-50 0 -50 60z" />
<glyph unicode="}" horiz-adv-x="829" d="M-147 -358l23 100q12 50 72 50q80 0 113.5 41t50.5 116l59 255q40 175 111.5 247.5t207.5 91.5l1 2q-104 39 -149 122q-24 45 -24 114q0 58 17 133l52 225q15 67 15 105v13q-3 39 -107 39q-50 0 -50 35q0 7 2 15l23 100q12 50 71 50q235 0 302 -88q41 -54 41 -143 q0 -57 -17 -129l-48 -205q-24 -101 -24 -162q0 -58 21 -80q44 -45 107 -45q39 0 39 -36q0 -10 -3 -23l-19 -82q-14 -59 -63 -59q-83 0 -144 -74t-93 -213l-66 -285q-39 -170 -118.5 -225t-353.5 -55q-51 0 -51 36q0 6 2 14z" />
<glyph unicode="~" horiz-adv-x="1280" d="M130 688q45 122 122 180t219 58q130 0 262 -106t207 -106t109 31t60 77q19 34 39 34l13 -4l66 -36q21 -11 21 -32q0 -10 -4 -22q-45 -122 -122 -180t-219 -58q-130 0 -262 106t-207 106t-109 -31t-60 -77q-20 -34 -39 -34l-13 4l-66 36q-21 11 -21 32q0 10 4 22z" />
<glyph unicode="&#xa2;" d="M128 412q0 232 160 435t404 221l40 172q14 60 64 60h80q39 0 39 -37q0 -10 -3 -23l-42 -180q59 -11 118.5 -45.5t110.5 -108.5q11 -16 11 -31q0 -23 -28 -42l-109 -73q-12 -8 -25 -8q-26 0 -52 38q-21 31 -42.5 47t-29.5 20l-156 -675q37 8 75.5 33.5t86.5 85.5 q20 24 41 24q19 0 40 -19l81 -75q19 -18 19 -39q0 -22 -21 -49q-39 -50 -132.5 -103.5t-236.5 -58.5l-39 -171q-14 -60 -64 -60h-80q-39 0 -39 37q0 10 3 23l42 182q-147 27 -231.5 136t-84.5 284zM424 387q0 -105 29.5 -136.5t40.5 -40.5l149 643q-63 -31 -141 -131 t-78 -335z" />
<glyph unicode="&#xa3;" d="M-35 65l14 59q12 49 61 88q56 44 112 108t84 183l19 80h-101q-52 0 -52 43q0 10 3 22l27 118q15 65 80 65h100l33 142q56 243 188.5 363t358.5 120q101 0 190.5 -32.5t144.5 -106.5q19 -25 19 -46t-17 -38l-69 -74q-23 -26 -46.5 -26t-46.5 26q-26 29 -75.5 51t-108.5 22 q-97 0 -161 -56.5t-89 -165.5l-41 -179h237q53 0 53 -43q0 -10 -3 -22l-27 -118q-15 -65 -79 -65h-238l-21 -88q-21 -89 -48 -146.5t-79 -98.5v-6q61 4 101 4h498q62 0 62 -45q0 -9 -2 -20l-27 -118q-15 -65 -90 -65h-904q-62 0 -62 45q0 9 2 20z" />
<glyph unicode="&#xa5;" d="M84 243l20 88q14 60 74 60h252l39 169h-252q-49 0 -49 39q0 10 3 21l20 88q14 60 74 60h154l-215 580q-8 21 -8 37q0 49 75 49h137q57 0 76 -69l101 -371l34 -118q14 -49 14 -119v-9h4q19 58 61 114l99 132l273 371q51 69 108 69h173q57 0 57 -29q0 -21 -30 -57 l-483 -580h154q49 0 49 -39q0 -10 -3 -21l-20 -88q-14 -60 -74 -60h-252l-39 -169h252q49 0 49 -39q0 -10 -3 -21l-20 -88q-14 -60 -74 -60h-252l-28 -123q-14 -60 -74 -60h-160q-49 0 -49 39q0 10 3 21l28 123h-252q-49 0 -49 39q0 10 3 21z" />
<glyph unicode="&#xa9;" horiz-adv-x="1654" d="M96 717q0 153 60 291.5t160.5 239t239 160.5t291.5 60t291.5 -60t239 -160.5t160.5 -239t60 -291.5t-60 -291.5t-160.5 -239t-239 -160.5t-291.5 -60t-291.5 60t-239 160.5t-160.5 239t-60 291.5zM212 717q0 -130 50.5 -247t135.5 -202t202 -137.5t247 -52.5t247 52.5 t202 137.5t135.5 202t50.5 247t-50.5 247t-135.5 202t-202 137.5t-247 52.5t-247 -52.5t-202 -137.5t-135.5 -202t-50.5 -247zM448 717q0 200 102 318t293 118q107 0 186.5 -33t111.5 -98q9 -18 9 -31q0 -18 -16 -27l-76 -43q-12 -7 -23 -7q-22 0 -37 29q-15 27 -54.5 48 t-94.5 21q-122 0 -168 -75t-46 -220t46 -220t168 -75q66 0 109 29t61 56q19 29 39 29q10 0 21 -7l76 -52q15 -10 15 -27q0 -13 -10 -31q-34 -58 -117 -98t-200 -40q-188 0 -291.5 118t-103.5 318z" />
<glyph unicode="&#xad;" horiz-adv-x="700" d="M48 496l26 114q12 50 71 50h474q51 0 51 -36q0 -6 -2 -14l-26 -114q-12 -50 -72 -50h-474q-50 0 -50 35q0 7 2 15z" />
<glyph unicode="&#xae;" horiz-adv-x="1654" d="M96 717q0 153 60 291.5t160.5 239t239 160.5t291.5 60t291.5 -60t239 -160.5t160.5 -239t60 -291.5t-60 -291.5t-160.5 -239t-239 -160.5t-291.5 -60t-291.5 60t-239 160.5t-160.5 239t-60 291.5zM212 717q0 -130 50.5 -247t135.5 -202t202 -137.5t247 -52.5t247 52.5 t202 137.5t135.5 202t50.5 247t-50.5 247t-135.5 202t-202 137.5t-247 52.5t-247 -52.5t-202 -137.5t-135.5 -202t-50.5 -247zM541 326v745q0 43 41 43h268q179 0 261.5 -55.5t82.5 -179.5q0 -93 -66.5 -148t-169.5 -73v-1q56 -21 84 -57.5t46 -65.5l128 -201q12 -19 12 -30 q0 -20 -34 -20h-107q-32 0 -52 34l-117 195q-18 30 -69 68t-102 38h-31v-292q0 -43 -40 -43h-94q-41 0 -41 43zM716 763h94q116 0 165 26t49 83q0 63 -47 80.5t-139 17.5h-122v-207z" />
<glyph unicode="&#xb4;" horiz-adv-x="614" d="M312 1209l129 179q34 47 117 47h152q34 0 34 -17q0 -15 -25 -42l-173 -189q-34 -37 -110 -37h-117q-27 0 -27 17q0 15 20 42z" />
<glyph unicode="&#x131;" horiz-adv-x="552" d="M30 60l215 930q14 60 73 60h160q49 0 49 -41q0 -8 -2 -19l-215 -930q-14 -60 -74 -60h-160q-49 0 -49 39q0 10 3 21z" />
<glyph unicode="&#x237;" horiz-adv-x="562" d="M-307 -349l37 106q10 29 41 29q6 0 13 -1q49 -9 67 -9q73 0 113 65t68 185l223 964q14 60 73 60h160q50 0 50 -40q0 -9 -3 -20l-230 -994q-57 -248 -168 -332t-282 -84q-90 0 -141 15q-26 8 -26 32q0 10 5 24z" />
<glyph unicode="&#x2d9;" horiz-adv-x="614" d="M339 1264l29 128q14 60 74 60h160q49 0 49 -39q0 -10 -3 -21l-29 -128q-14 -60 -74 -60h-160q-49 0 -49 39q0 10 3 21z" />
<glyph unicode="&#x2000;" horiz-adv-x="807" />
<glyph unicode="&#x2001;" horiz-adv-x="1615" />
<glyph unicode="&#x2002;" horiz-adv-x="807" />
<glyph unicode="&#x2003;" horiz-adv-x="1615" />
<glyph unicode="&#x2004;" horiz-adv-x="538" />
<glyph unicode="&#x2005;" horiz-adv-x="403" />
<glyph unicode="&#x2006;" horiz-adv-x="269" />
<glyph unicode="&#x2007;" horiz-adv-x="269" />
<glyph unicode="&#x2008;" horiz-adv-x="201" />
<glyph unicode="&#x2009;" horiz-adv-x="323" />
<glyph unicode="&#x200a;" horiz-adv-x="89" />
<glyph unicode="&#x2010;" horiz-adv-x="700" d="M48 496l26 114q12 50 71 50h474q51 0 51 -36q0 -6 -2 -14l-26 -114q-12 -50 -72 -50h-474q-50 0 -50 35q0 7 2 15z" />
<glyph unicode="&#x2011;" horiz-adv-x="700" d="M48 496l26 114q12 50 71 50h474q51 0 51 -36q0 -6 -2 -14l-26 -114q-12 -50 -72 -50h-474q-50 0 -50 35q0 7 2 15z" />
<glyph unicode="&#x2012;" horiz-adv-x="700" d="M48 496l26 114q12 50 71 50h474q51 0 51 -36q0 -6 -2 -14l-26 -114q-12 -50 -72 -50h-474q-50 0 -50 35q0 7 2 15z" />
<glyph unicode="&#x2013;" horiz-adv-x="1032" d="M43 503v100q0 50 60 50h834q60 0 60 -50v-100q0 -50 -60 -50h-834q-60 0 -60 50z" />
<glyph unicode="&#x2014;" horiz-adv-x="2056" d="M43 503v100q0 50 60 50h1858q60 0 60 -50v-100q0 -50 -60 -50h-1858q-60 0 -60 50z" />
<glyph unicode="&#x2018;" horiz-adv-x="570" d="M-16 1045l31 134q25 109 59 197t123 160q29 23 51 23q18 0 31 -15l35 -37q10 -10 10 -22q0 -23 -39 -53q-37 -29 -60 -74.5t-36 -103.5h69q56 0 56 -49q0 -11 -3 -26l-31 -134q-17 -75 -88 -75h-156q-56 0 -56 47q0 13 4 28z" />
<glyph unicode="&#x2019;" horiz-adv-x="570" d="M305 931q-10 10 -10 22q0 23 39 53q37 29 60 74.5t36 103.5h-69q-56 0 -56 49q0 11 3 26l31 134q17 75 88 75h156q56 0 56 -47q0 -13 -4 -28l-31 -134q-25 -109 -59 -197t-123 -160q-29 -23 -51 -23q-18 0 -31 15z" />
<glyph unicode="&#x201a;" horiz-adv-x="570" d="M31 -253q-10 10 -10 22q0 23 39 53q37 29 60 74.5t36 103.5h-69q-56 0 -56 49q0 11 3 26l31 134q17 75 88 75h156q56 0 56 -47q0 -13 -4 -28l-31 -134q-25 -109 -59 -197t-123 -160q-29 -23 -51 -23q-18 0 -31 15z" />
<glyph unicode="&#x201c;" horiz-adv-x="916" d="M221 1045l31 134q25 109 59 197t123 160q29 23 51 23q18 0 31 -15l35 -37q10 -10 10 -22q0 -23 -39 -53q-37 -29 -60 -74.5t-36 -103.5h69q56 0 56 -49q0 -11 -3 -26l-31 -134q-17 -75 -88 -75h-156q-56 0 -56 47q0 13 4 28zM641 1045l31 134q25 109 59 197t123 160 q29 23 51 23q18 0 31 -15l35 -37q10 -10 10 -22q0 -23 -39 -53q-37 -29 -60 -74.5t-36 -103.5h69q56 0 56 -49q0 -11 -3 -26l-31 -134q-17 -75 -88 -75h-156q-56 0 -56 47q0 13 4 28z" />
<glyph unicode="&#x201d;" horiz-adv-x="916" d="M268 931q-10 10 -10 22q0 23 39 53q37 29 60 74.5t36 103.5h-69q-56 0 -56 49q0 11 3 26l31 134q17 75 88 75h156q56 0 56 -47q0 -13 -4 -28l-31 -134q-25 -109 -59 -197t-123 -160q-29 -23 -51 -23q-18 0 -31 15zM688 931q-10 10 -10 22q0 23 39 53q37 29 60 74.5 t36 103.5h-69q-56 0 -56 49q0 11 3 26l31 134q17 75 88 75h156q56 0 56 -47q0 -13 -4 -28l-31 -134q-25 -109 -59 -197t-123 -160q-29 -23 -51 -23q-18 0 -31 15z" />
<glyph unicode="&#x201e;" horiz-adv-x="916" d="M-6 -253q-10 10 -10 22q0 23 39 53q37 29 60 74.5t36 103.5h-69q-56 0 -56 49q0 11 3 26l31 134q17 75 88 75h156q56 0 56 -47q0 -13 -4 -28l-31 -134q-25 -109 -59 -197t-123 -160q-29 -23 -51 -23q-18 0 -31 15zM414 -253q-10 10 -10 22q0 23 39 53q37 29 60 74.5 t36 103.5h-69q-56 0 -56 49q0 11 3 26l31 134q17 75 88 75h156q56 0 56 -47q0 -13 -4 -28l-31 -134q-25 -109 -59 -197t-123 -160q-29 -23 -51 -23q-18 0 -31 15z" />
<glyph unicode="&#x2022;" horiz-adv-x="1024" d="M300 694q0 104 74 178t178 74t178 -74t74 -178t-74 -178t-178 -74t-178 74t-74 178z" />
<glyph unicode="&#x2026;" horiz-adv-x="2048" d="M102 75l31 134q17 75 88 75h152q56 0 56 -47q0 -13 -4 -28l-31 -134q-17 -75 -87 -75h-152q-56 0 -56 49q0 11 3 26zM775 75l31 134q17 75 88 75h152q56 0 56 -47q0 -13 -4 -28l-31 -134q-17 -75 -87 -75h-152q-56 0 -56 49q0 11 3 26zM1448 75l31 134q17 75 88 75h152 q56 0 56 -47q0 -13 -4 -28l-31 -134q-17 -75 -87 -75h-152q-56 0 -56 49q0 11 3 26z" />
<glyph unicode="&#x202f;" horiz-adv-x="323" />
<glyph unicode="&#x205f;" horiz-adv-x="403" />
<glyph unicode="&#x20ac;" d="M11 519l34 92q17 45 72 45h18q10 69 25 132h-44q-42 0 -42 26q0 8 4 19l34 92q17 45 72 45h37q60 176 239.5 331t460.5 155q93 0 172.5 -23t154.5 -107q28 -31 28 -55q0 -21 -20 -37l-108 -87q-17 -13 -34 -13q-25 0 -51 28q-38 42 -84.5 56t-107.5 14q-117 0 -204 -81 t-136 -181h349q42 0 42 -26q0 -8 -4 -19l-34 -92q-17 -45 -72 -45h-354q-19 -64 -30 -132h385q42 0 42 -26q0 -8 -4 -19l-34 -92q-17 -45 -72 -45h-334v-27q0 -153 57 -205t156 -52q87 0 136.5 22t103.5 63q37 28 62 28q17 0 29 -14l75 -92q17 -21 17 -41q0 -24 -26 -47 q-85 -73 -193.5 -108.5t-231.5 -35.5q-242 0 -359.5 124t-117.5 320q0 33 1 65h-71q-42 0 -42 26q0 8 4 19z" />
<glyph unicode="&#x2122;" horiz-adv-x="1696" d="M197 1326v76q0 32 39 32h535q38 0 38 -32v-76q0 -32 -38 -32h-173v-494q0 -38 -39 -38h-113q-38 0 -38 38v494h-172q-39 0 -39 32zM888 800v596q0 38 38 38h187q43 0 55 -42l106 -378q5 -19 10.5 -46t5.5 -46h3q0 19 5.5 46t10.5 46l107 378q12 42 54 42h186q39 0 39 -38 v-596q0 -38 -39 -38h-112q-39 0 -39 38v324q0 26 3 51h-3l-105 -374q-11 -39 -35 -39h-147q-23 0 -34 39l-106 374h-3q3 -25 3 -51v-324q0 -38 -39 -38h-113q-38 0 -38 38z" />
<glyph unicode="&#x2212;" horiz-adv-x="1280" d="M122 682v86q0 50 60 50h1010q60 0 60 -50v-86q0 -50 -60 -50h-1010q-60 0 -60 50z" />
<glyph unicode="&#x2215;" horiz-adv-x="912" d="M-257 -21q-33 31 11 78l1360 1458q49 52 81 21l68 -65q33 -31 -11 -78l-1359 -1458q-48 -52 -81 -21z" />
<glyph unicode="&#xe000;" horiz-adv-x="1050" d="M0 1050h1050v-1050h-1050v1050z" />
<glyph unicode="&#xf102;" horiz-adv-x="706" d="M-24 268q0 150 116.5 299t291.5 149q128 0 193 -79t65 -249q0 -160 -116.5 -304t-291.5 -144q-128 0 -193 79t-65 249zM178 238q0 -66 15.5 -114.5t56.5 -48.5q80 0 135 109t55 234q0 66 -15.5 114.5t-56.5 48.5q-80 0 -135 -109t-55 -234z" />
</font>
</defs>
</svg>
