<?xml version="1.0" standalone="no"?> <!DOCTYPE svg PUBLIC "-//W3C//DTD SVG 1.0//EN" "http://www.w3.org/TR/2001/REC-SVG-20010904/DTD/svg10.dtd" > <svg xmlns="http://www.w3.org/2000/svg" width="100%" height="100%">
<defs >
<font id="Gotham-Medium" horiz-adv-x="1038" ><font-face
    font-family="Gotham"
    units-per-em="2048"
    panose-1="2 0 6 4 3 0 0 2 0 4"
    ascent="1665"
    descent="-338"
    alphabetic="0" />
<missing-glyph horiz-adv-x="748" d="M68 0V1365H612V0H68ZM136 68H544V1297H136V68Z" />
<glyph unicode=" " glyph-name="space" horiz-adv-x="614" />
<glyph unicode="!" glyph-name="exclam" horiz-adv-x="618" d="M242 453L164 1362V1434H455V1362L379 453H242ZM174 0V281H446V0H174Z" />
<glyph unicode="&quot;" glyph-name="quotedbl" horiz-adv-x="997" d="M571 821L621 1434H901V1423L700 821H571ZM123 821L170 1434H451V1423L252 821H123Z" />
<glyph unicode="#" glyph-name="numbersign" horiz-adv-x="1433" d="M207 0L264 330H80V543H301L360 899H156V1112H397L453 1434H672L616 1112H952L1006 1434H1225L1169 1112H1352V899H1133L1073 543H1278V330H1036L979 0H760L817 330H481L426 0H207ZM518 543H854L915
899H580L518 543Z" />
<glyph unicode="%" glyph-name="percent" horiz-adv-x="1738" d="M434 717Q287 717 193 822T98 1079V1083Q98 1235 193 1342T438 1450Q585 1450 679 1345T774 1087V1083Q774 931 679 824T434 717ZM244 0L1292 1434H1495L446 0H244ZM1300 -16Q1153 -16 1059 89T965
346V350Q965 502 1060 609T1305 717Q1452 717 1546 612T1640 354V350Q1640 198 1545 91T1300 -16ZM438 874Q508 874 550 933T592 1079V1083Q592 1171 547 1231T434 1292Q364 1292 323 1233T281 1087V1083Q281 995 325 935T438 874ZM1305 141Q1375 141 1416 200T1458
346V350Q1458 438 1413 498T1300 559Q1230 559 1189 500T1147 354V350Q1147 262 1192 202T1305 141Z" />
<glyph unicode="&amp;" glyph-name="ampersand" horiz-adv-x="1425" d="M1178 -29L987 166Q786 -20 547 -20Q344 -20 212 92T80 389V393Q80 663 385 795Q266 947 266 1094V1098Q266 1248 379 1353T678 1458Q846 1458 952 1359T1059 1112V1108Q1059 854 743 735L989
485Q1067 602 1143 762L1333 662Q1235 465 1139 334L1364 104L1178 -29ZM610 870Q835 952 836 1094V1098Q836 1170 790 1215T672 1260Q596 1260 549 1212T502 1087V1083Q501 989 610 870ZM573 188Q712 188 844 313L524 639Q334 557 334 401V397Q334 307 401 248T573
188Z" />
<glyph unicode="&apos;" glyph-name="quotesingle" horiz-adv-x="550" d="M123 821L170 1434H455V1423L254 821H123Z" />
<glyph unicode="(" glyph-name="parenleft" horiz-adv-x="901" d="M696 -289Q129 22 129 587T696 1464L805 1298Q584 1153 481 983T377 588T480 193T805 -123L696 -289Z" />
<glyph unicode=")" glyph-name="parenright" horiz-adv-x="901" d="M207 -289L98 -123Q319 22 422 192T526 587T423 983T98 1298L207 1464Q774 1151 774 588T207 -289Z" />
<glyph unicode="*" glyph-name="asterisk" horiz-adv-x="880" d="M369 782L397 1032L193 883L119 1008L352 1110L119 1212L193 1337L397 1188L369 1438H512L483 1188L688 1337L762 1212L528 1110L762 1008L688 883L483 1032L512 782H369Z" />
<glyph unicode="+" glyph-name="plus" horiz-adv-x="1310" d="M539 217V608H145V834H539V1225H772V834H1165V608H772V217H539Z" />
<glyph unicode="," glyph-name="comma" horiz-adv-x="550" d="M96 -297L70 -193Q258 -156 244 0H139V281H412V43Q412 -123 334 -204T96 -297Z" />
<glyph unicode="-" glyph-name="uni00AD" horiz-adv-x="835" d="M115 506V750H721V506H115Z" />
<glyph unicode="." glyph-name="period" horiz-adv-x="550" d="M139 0V281H412V0H139Z" />
<glyph unicode="/" glyph-name="slash" horiz-adv-x="1067" d="M-51 -262L874 1634H1090L164 -262H-51Z" />
<glyph unicode="0" glyph-name="zero" horiz-adv-x="1482" d="M1016 -25T740 -25T290 187T117 713V717Q117 1030 292 1244T743 1458T1193 1246T1366 721V717Q1366 404 1191 190ZM580 203T743 203T1006 349T1106 713V717Q1106 934 1004 1082T740 1231T478 1086T377
721V717Q377 500 478 352Z" />
<glyph unicode="1" glyph-name="one" horiz-adv-x="811" d="M365 0V1188L106 1116L53 1321L438 1444H614V0H365Z" />
<glyph unicode="2" glyph-name="two" horiz-adv-x="1255" d="M100 0V199L594 618Q746 745 804 828T862 1006Q862 1108 797 1168T631 1229Q537 1229 462 1178T299 1014L121 1153Q232 1309 349 1381T649 1454Q860 1454 991 1337T1122 1026V1022Q1122 862 1040 750T750
467L455 221H1137V0H100Z" />
<glyph unicode="3" glyph-name="three" horiz-adv-x="1265" d="M637 -25Q295 -25 88 227L264 391Q424 203 641 203Q747 203 818 263T889 420V424Q889 528 800 586T559 645H442L401 803L788 1214H168V1434H1116V1245L717 836Q901 811 1020 714T1139 432V428Q1139
229 999 102T637 -25Z" />
<glyph unicode="4" glyph-name="four" horiz-adv-x="1394" d="M844 0V322H121L74 502L870 1444H1085V528H1290V322H1085V0H844ZM373 528H844V1096L373 528Z" />
<glyph unicode="5" glyph-name="five" horiz-adv-x="1273" d="M623 -25Q322 -25 96 195L252 377Q436 205 621 205Q750 205 827 272T905 453V457Q905 566 822 630T608 694Q479 694 344 631L193 731L233 1434H1090V1210H451L428 874Q541 915 655 915Q874 915 1013
800T1153 465V461Q1153 242 1007 109T623 -25Z" />
<glyph unicode="6" glyph-name="six" horiz-adv-x="1343" d="M690 -25Q444 -25 291 125Q205 213 161 340T117 674V678Q117 1020 277 1239T731 1458Q971 1458 1169 1298L1034 1104Q872 1229 723 1229Q567 1229 478 1103T379 774Q526 917 721 918Q938 918 1080 797T1223
467V463Q1223 252 1070 114T690 -25ZM684 193Q815 193 893 266T971 453V457Q971 566 890 636T678 707T467 634T387 455V451Q387 340 469 267T684 193Z" />
<glyph unicode="7" glyph-name="seven" horiz-adv-x="1247" d="M217 0L860 1212H139V1434H1147V1243L500 0H217Z" />
<glyph unicode="8" glyph-name="eight" horiz-adv-x="1290" d="M645 -20Q407 -20 253 93T98 389V393Q98 635 356 743Q147 854 147 1063V1067Q147 1233 288 1343T645 1454T1001 1344T1143 1067V1063Q1143 854 934 743Q1192 624 1192 399V395Q1192 207 1039 94T645
-20ZM535 827T645 827T828 886T901 1038V1042Q901 1126 830 1184T645 1243T461 1186T389 1044V1040Q389 946 462 887ZM508 190T645 190T864 251T946 406V410Q946 506 860 566T645 627T430 567T344 410V406Q344 316 426 253Z" />
<glyph unicode="9" glyph-name="nine" horiz-adv-x="1343" d="M612 -25Q360 -25 154 147L291 340Q451 205 618 205Q774 205 866 329T965 655Q838 503 629 504Q400 504 261 628T121 958V963Q121 1176 270 1317T655 1458Q901 1458 1053 1307Q1227 1133 1227 760V756Q1227
406 1062 191T612 -25ZM532 715T665 715T877 789T956 973V977Q956 1092 875 1166T657 1241Q526 1241 450 1166T373 975V971Q373 858 452 787Z" />
<glyph unicode=":" glyph-name="colon" horiz-adv-x="571" d="M150 801V1081H422V801H150ZM150 0V281H422V0H150Z" />
<glyph unicode=";" glyph-name="uni037E" horiz-adv-x="571" d="M106 -297L80 -193Q268 -156 254 0H150V281H422V43Q422 -123 344 -204T106 -297ZM150 801V1081H422V801H150Z" />
<glyph unicode="&lt;" glyph-name="less" horiz-adv-x="1310" d="M1120 158L143 610V831L1120 1284V1049L389 723L1120 395V158Z" />
<glyph unicode="=" glyph-name="equal" horiz-adv-x="1310" d="M176 862V1092H1135V862H176ZM176 350V580H1135V350H176Z" />
<glyph unicode="&gt;" glyph-name="greater" horiz-adv-x="1310" d="M190 158V393L922 719L190 1047V1284L1167 831V610L190 158Z" />
<glyph unicode="?" glyph-name="question" horiz-adv-x="1107" d="M424 453L383 784L393 795Q772 809 772 1024V1028Q772 1116 709 1169T537 1223Q355 1223 203 1061L49 1225Q250 1452 543 1452Q760 1452 891 1340T1022 1036V1032Q1022 850 910 751T610 618L590
453H424ZM365 0V281H639V0H365Z" />
<glyph unicode="@" glyph-name="at" horiz-adv-x="2007" d="M1022 -332Q633 -332 371 -71T109 561Q109 930 370 1194T1006 1458Q1190 1458 1357 1391T1641 1212T1828 953T1898 647Q1898 401 1785 269T1501 137Q1288 137 1198 281Q1059 138 881 137Q723 137 617
244T510 524Q510 737 651 886T975 1036Q1165 1036 1264 885L1288 1008L1487 977L1397 461Q1387 400 1386 373Q1386 305 1429 266T1546 227Q1661 227 1739 336T1817 647Q1817 938 1582 1159T1006 1380Q660 1380 425 1142T190 561Q190 217 426 -18T1022 -254Q1290
-254 1528 -117L1565 -178Q1313 -332 1022 -332ZM936 315Q1049 315 1134 410T1219 639Q1219 737 1158 798T1004 860Q889 860 804 766T719 537Q719 433 778 374T936 315Z" />
<glyph unicode="A" glyph-name="A" horiz-adv-x="1617" d="M61 0L692 1444H926L1556 0H1290L1145 346H467L319 0H61ZM559 569H1053L805 1143L559 569Z" />
<glyph unicode="B" glyph-name="B" horiz-adv-x="1478" d="M184 0V1434H827Q1075 1434 1202 1307Q1298 1211 1298 1069V1065Q1298 852 1094 745Q1379 649 1378 397V393Q1378 205 1235 103T848 0H184ZM432 829H776Q901 829 974 878T1047 1024V1028Q1047 1114 981
1162T795 1210H432V829ZM432 223H850Q981 223 1053 273T1126 420V424Q1126 617 831 616H432V223Z" />
<glyph unicode="C" glyph-name="C" horiz-adv-x="1511" d="M850 -25Q539 -25 330 188T121 713V717Q121 1028 330 1243T860 1458Q1046 1458 1176 1401T1421 1235L1260 1049Q1067 1227 858 1227Q655 1227 520 1081T385 721V717Q385 504 520 356T858 207Q981 207
1075 253T1270 393L1432 229Q1311 102 1176 39T850 -25Z" />
<glyph unicode="D" glyph-name="D" horiz-adv-x="1601" d="M184 0V1434H719Q1053 1434 1267 1230T1481 721V717Q1481 410 1267 205T719 0H184ZM436 229H719Q942 229 1079 364T1217 713V717Q1217 930 1080 1067T719 1204H436V229Z" />
<glyph unicode="E" glyph-name="E" horiz-adv-x="1372" d="M184 0V1434H1247V1208H436V836H1155V610H436V225H1257V0H184Z" />
<glyph unicode="F" glyph-name="F" horiz-adv-x="1343" d="M184 0V1434H1251V1204H436V813H1159V584H436V0H184Z" />
<glyph unicode="G" glyph-name="G" horiz-adv-x="1605" d="M864 -25Q532 -25 327 185T121 713V717Q121 1024 331 1241T860 1458Q1040 1458 1167 1410T1411 1264L1251 1073Q1161 1151 1070 1189T850 1227Q653 1227 519 1079T385 721V717Q385 494 520 350T872 205Q1073
205 1219 313V582H852V801H1462V199Q1202 -25 864 -25Z" />
<glyph unicode="H" glyph-name="H" horiz-adv-x="1556" d="M184 0V1434H436V838H1120V1434H1372V0H1120V604H436V0H184Z" />
<glyph unicode="I" glyph-name="I" horiz-adv-x="649" d="M199 0V1434H451V0H199Z" />
<glyph unicode="J" glyph-name="J" horiz-adv-x="1144" d="M502 -20Q213 -20 43 211L209 381Q342 213 498 213Q602 213 663 283T725 494V1434H983V487Q983 239 850 106Q723 -20 502 -20Z" />
<glyph unicode="K" glyph-name="K" horiz-adv-x="1484" d="M184 0V1434H436V713L1118 1434H1427L831 817L1454 0H1149L659 645L436 416V0H184Z" />
<glyph unicode="L" glyph-name="L" horiz-adv-x="1267" d="M184 0V1434H436V229H1190V0H184Z" />
<glyph unicode="M" glyph-name="M" horiz-adv-x="1777" d="M184 0V1434H453L889 756L1325 1434H1593V0H1341V1028L889 352H881L432 1024V0H184Z" />
<glyph unicode="N" glyph-name="N" horiz-adv-x="1617" d="M184 0V1434H418L1186 442V1434H1434V0H1223L432 1020V0H184Z" />
<glyph unicode="O" glyph-name="O" horiz-adv-x="1740" d="M1194 -25T869 -25T332 190T121 713V717Q121 1024 334 1241T872 1458T1409 1243T1620 721V717Q1620 410 1407 193ZM662 207T872 207T1219 353T1356 713V717Q1356 930 1218 1078T868 1227T521 1081T385
721V717Q385 504 523 356Z" />
<glyph unicode="P" glyph-name="P" horiz-adv-x="1368" d="M184 0V1434H750Q1000 1434 1147 1303T1294 954V950Q1294 719 1132 590T721 461H436V0H184ZM436 688H729Q870 688 954 759T1038 944V948Q1038 1071 955 1137T729 1204H436V688Z" />
<glyph unicode="Q" glyph-name="Q" horiz-adv-x="1740" d="M1477 -43L1305 111Q1115 -24 868 -25Q542 -25 332 190T121 713V717Q121 1024 334 1241T872 1458T1409 1243T1620 721V717Q1620 469 1475 276L1638 137L1477 -43ZM872 207Q1009 207 1118 276L872 485L1034
670L1282 444Q1356 557 1356 713V717Q1356 930 1218 1078T868 1227T521 1081T385 721V717Q385 504 523 356T872 207Z" />
<glyph unicode="R" glyph-name="R" horiz-adv-x="1480" d="M184 0V1434H823Q1089 1434 1237 1290Q1356 1167 1356 981V977Q1356 807 1264 698T1014 543L1401 0H1104L752 500H748H436V0H184ZM436 723H805Q940 723 1020 788T1100 963V967Q1100 1082 1022 1143T803
1204H436V723Z" />
<glyph unicode="S" glyph-name="S" horiz-adv-x="1310" d="M686 -20Q344 -20 88 209L240 389Q455 203 692 203Q809 203 877 252T946 383V387Q946 467 881 514T623 606Q500 637 418 667T271 747T175 867T145 1034V1038Q145 1222 282 1338T635 1454Q930 1454 1155
1274L1020 1083Q821 1230 631 1231Q525 1231 461 1183T397 1061V1057Q397 973 466 927T737 831Q975 774 1086 679T1198 412V408Q1198 209 1057 95T686 -20Z" />
<glyph unicode="T" glyph-name="T" horiz-adv-x="1327" d="M537 0V1200H82V1434H1245V1200H791V0H537Z" />
<glyph unicode="U" glyph-name="U" horiz-adv-x="1550" d="M772 -23Q487 -23 325 139T162 608V1434H414V618Q414 421 510 315T776 209T1041 311T1137 608V1434H1389V621Q1389 308 1225 143T772 -23Z" />
<glyph unicode="V" glyph-name="V" horiz-adv-x="1536" d="M657 -10L61 1434H340L772 332L1202 1434H1475L879 -10H657Z" />
<glyph unicode="W" glyph-name="W" horiz-adv-x="2285" d="M573 -10L74 1434H346L688 371L1040 1438H1253L1606 371L1948 1434H2212L1712 -10H1495L1143 1020L791 -10H573Z" />
<glyph unicode="X" glyph-name="X" horiz-adv-x="1492" d="M76 0L598 729L96 1434H393L750 920L1108 1434H1397L897 733L1417 0H1120L743 543L365 0H76Z" />
<glyph unicode="Y" glyph-name="Y" horiz-adv-x="1466" d="M606 0V565L37 1434H334L735 799L1141 1434H1430L860 571V0H606Z" />
<glyph unicode="Z" glyph-name="Z" horiz-adv-x="1437" d="M133 0V186L979 1210H160V1434H1307V1247L461 223H1307V0H133Z" />
<glyph unicode="[" glyph-name="bracketleft" horiz-adv-x="929" d="M180 -266V1434H809V1239H416V-72H809V-266H180Z" />
<glyph unicode="\" glyph-name="backslash" horiz-adv-x="1067" d="M903 -262L-23 1634H193L1118 -262H903Z" />
<glyph unicode="]" glyph-name="bracketright" horiz-adv-x="929" d="M121 -266V-72H514V1239H121V1434H752V-266H121Z" />
<glyph unicode="^" glyph-name="asciicircum" horiz-adv-x="1024" d="M115 1010L424 1436H600L909 1010H719L510 1280L301 1010H115Z" />
<glyph unicode="_" glyph-name="underscore" horiz-adv-x="1228" d="M-4 -328V-135H1233V-328H-4Z" />
<glyph unicode="`" glyph-name="grave" horiz-adv-x="1024" d="M504 1219L254 1454L479 1554L696 1219H504Z" />
<glyph unicode="a" glyph-name="a" horiz-adv-x="1202" d="M1063 0H817V133Q686 -23 467 -23Q305 -23 194 66T82 311V315Q82 489 203 579T520 670Q678 670 819 625V645Q819 758 751 817T553 877Q406 877 244 809L176 1008Q377 1098 588 1098Q824 1098 943 979T1063
641V0ZM823 391V453Q712 496 575 496Q458 496 393 451T328 328V324Q328 250 387 207T537 164Q662 164 742 227T823 391Z" />
<glyph unicode="b" glyph-name="b" horiz-adv-x="1372" d="M770 -23Q547 -23 403 168V0H156V1495H403V901Q546 1104 770 1104Q975 1104 1124 952T1274 543V539Q1274 283 1125 130T770 -23ZM713 193Q844 193 933 288T1022 539V543Q1022 697 932 793T713 889T491
792T397 543V539Q397 387 490 290T713 193Z" />
<glyph unicode="c" glyph-name="c" horiz-adv-x="1169" d="M655 -25Q415 -25 256 138T96 535V539Q96 772 257 938T657 1104Q919 1104 1090 918L936 752Q807 887 655 887Q522 887 433 787T344 543V539Q344 392 435 291T668 190Q818 190 948 326L1098 178Q1010 80
906 28T655 -25Z" />
<glyph unicode="d" glyph-name="d" horiz-adv-x="1372" d="M602 -23Q399 -23 250 130T100 539V543Q100 801 248 952T602 1104Q823 1104 971 913V1495H1219V0H971V180Q827 -23 602 -23ZM532 193T661 193T883 290T975 539V543Q975 695 883 792T662 889Q531 889 441
795T350 543V539Q350 385 441 289Z" />
<glyph unicode="e" glyph-name="e" horiz-adv-x="1236" d="M651 -25Q413 -25 255 132T96 537V541Q96 777 245 940T625 1104Q871 1104 1007 937T1143 522Q1143 502 1139 453H344Q364 324 448 251T655 178Q815 178 948 307L1094 178Q925 -25 651 -25ZM342 616H897Q885
741 813 821T623 901Q510 901 434 822T342 616Z" />
<glyph unicode="f" glyph-name="f" horiz-adv-x="770" d="M211 0V868H74V1075H211V1153Q211 1333 299 1421Q385 1507 543 1507Q647 1507 743 1479V1270Q663 1297 598 1296Q455 1296 455 1133V1073H741V868H459V0H211Z" />
<glyph unicode="g" glyph-name="g" horiz-adv-x="1372" d="M637 -332Q367 -332 154 -203L246 -16Q430 -131 631 -131Q797 -131 885 -46T973 201V285Q819 86 592 86Q391 86 246 224T100 592V596Q100 825 246 964T592 1104Q817 1104 971 920V1081H1219V221Q1219
-49 1081 -186Q936 -332 637 -332ZM657 295Q788 295 881 379T975 592V596Q975 727 882 811T657 895T438 812T350 598V594Q350 463 439 379T657 295Z" />
<glyph unicode="h" glyph-name="h" horiz-adv-x="1269" d="M156 0V1495H403V913Q532 1103 741 1104Q921 1104 1023 992T1126 688V0H879V614Q879 741 819 810T647 879Q538 879 471 807T403 610V0H156Z" />
<glyph unicode="i" glyph-name="i" horiz-adv-x="585" d="M160 1247V1483H426V1247H160ZM170 0V1081H418V0H170Z" />
<glyph unicode="j" glyph-name="j" horiz-adv-x="585" d="M160 1247V1483H426V1247H160ZM102 -334Q49 -334 -16 -324V-125Q21 -131 53 -131Q170 -131 170 0V1081H418V-14Q417 -334 102 -334Z" />
<glyph unicode="k" glyph-name="k" horiz-adv-x="1191" d="M156 0V1495H403V602L852 1081H1153L723 641L1167 0H881L555 467L403 309V0H156Z" />
<glyph unicode="l" glyph-name="l" horiz-adv-x="585" d="M170 0V1495H418V0H170Z" />
<glyph unicode="m" glyph-name="m" horiz-adv-x="1945" d="M156 0V1081H403V918Q538 1104 733 1104Q958 1104 1055 913Q1200 1103 1421 1104Q1599 1104 1699 996T1800 690V0H1552V614Q1552 743 1495 811T1334 879T1166 808T1102 610V0H854V616Q854 741 797 810T635
879T467 806T403 608V0H156Z" />
<glyph unicode="n" glyph-name="n" horiz-adv-x="1269" d="M156 0V1081H403V913Q532 1103 741 1104Q921 1104 1023 992T1126 688V0H879V614Q879 741 819 810T647 879Q538 879 471 807T403 610V0H156Z" />
<glyph unicode="o" glyph-name="o" horiz-adv-x="1345" d="M670 -25Q424 -25 260 138T96 535V539Q96 775 262 939T674 1104T1084 940T1249 543V539Q1249 306 1084 141T670 -25ZM674 190Q821 190 911 290T1001 535V539Q1001 684 907 785T670 887Q525 887 435 788T344
543V539Q344 396 438 293T674 190Z" />
<glyph unicode="p" glyph-name="p" horiz-adv-x="1372" d="M156 -328V1081H403V901Q546 1104 770 1104Q975 1104 1124 952T1274 543V539Q1274 283 1125 130T770 -23Q547 -23 403 168V-328H156ZM713 193Q844 193 933 288T1022 539V543Q1022 697 932 793T713 889T491
792T397 543V539Q397 387 490 290T713 193Z" />
<glyph unicode="q" glyph-name="q" horiz-adv-x="1372" d="M971 -328V180Q828 -23 602 -23Q399 -23 250 130T100 539V543Q100 801 248 952T602 1104Q823 1104 971 913V1081H1219V-328H971ZM532 193T661 193T883 290T975 539V543Q975 695 883 792T662 889Q531 889
441 795T350 543V539Q350 385 441 289Z" />
<glyph unicode="r" glyph-name="r" horiz-adv-x="845" d="M156 0V1081H403V838Q518 1114 786 1102V840H772Q604 840 504 731T403 412V0H156Z" />
<glyph unicode="s" glyph-name="s" horiz-adv-x="1024" d="M526 -20Q272 -20 68 141L178 309Q354 176 532 176Q612 176 656 208T700 293V297Q700 365 582 409Q557 418 459 449Q385 469 336 489T232 546T149 637T121 766V770Q121 920 230 1010T506 1100Q717 1100
903 977L805 801Q637 903 500 903Q428 903 388 874T348 795V791Q348 742 402 712T571 646Q586 641 592 639Q664 616 713 595T816 537T899 447T928 324V319Q928 155 815 68T526 -20Z" />
<glyph unicode="t" glyph-name="t" horiz-adv-x="839" d="M518 -18Q207 -18 207 299V868H70V1081H207V1378H455V1081H745V868H455V338Q455 203 588 203Q668 203 741 240V37Q643 -18 518 -18Z" />
<glyph unicode="u" glyph-name="u" horiz-adv-x="1269" d="M528 -23Q348 -23 246 90T143 393V1081H391V467Q391 340 451 272T623 203Q732 203 799 274T866 471V1081H1114V0H866V168Q737 -23 528 -23Z" />
<glyph unicode="v" glyph-name="v" horiz-adv-x="1218" d="M498 -8L53 1081H319L610 287L903 1081H1163L721 -8H498Z" />
<glyph unicode="w" glyph-name="w" horiz-adv-x="1763" d="M416 -8L66 1081H319L537 340L776 1085H987L1229 340L1450 1081H1698L1343 -8H1122L881 731L637 -8H416Z" />
<glyph unicode="x" glyph-name="x" horiz-adv-x="1187" d="M61 0L459 549L76 1081H346L596 725L846 1081H1110L727 555L1126 0H856L590 379L326 0H61Z" />
<glyph unicode="y" glyph-name="y" horiz-adv-x="1220" d="M377 -334Q242 -334 121 -268L205 -84Q281 -125 350 -125Q403 -125 438 -98T504 0L53 1081H317L625 279L905 1081H1163L733 -31Q667 -197 588 -265T377 -334Z" />
<glyph unicode="z" glyph-name="z" horiz-adv-x="1146" d="M106 0V170L731 879H129V1081H1047V911L422 203H1047V0H106Z" />
<glyph unicode="{" glyph-name="braceleft" horiz-adv-x="997" d="M852 -289Q586 -240 487 -144T387 121Q387 135 389 192T391 268Q391 389 339 441T160 494H106V682H160Q287 682 339 734T391 907Q391 925 389 982T387 1055Q387 1223 486 1319T852 1464L895 1300Q719
1251 668 1195T616 1020Q616 1000 618 946T621 868Q621 753 568 688T408 588Q517 553 569 488T621 307Q621 284 619 230T616 156Q616 37 667 -19T895 -125L852 -289Z" />
<glyph unicode="|" glyph-name="bar" horiz-adv-x="677" d="M240 -262V1634H438V-262H240Z" />
<glyph unicode="}" glyph-name="braceright" horiz-adv-x="997" d="M145 -289L102 -125Q278 -76 329 -20T381 156Q381 176 379 230T377 307Q377 422 430 487T590 588Q481 623 429 688T377 868Q377 891 379 945T381 1020Q381 1139 330 1195T102 1300L145 1464Q411
1415 510 1319T610 1055Q610 1041 608 984T606 907Q606 786 658 734T838 682H891V494H838Q711 494 659 442T606 268Q606 250 608 193T610 121Q610 -47 511 -143T145 -289Z" />
<glyph unicode="~" glyph-name="asciitilde" horiz-adv-x="1013" d="M258 469L121 512Q156 643 208 704T350 766Q411 766 511 725T643 684Q686 684 709 707T756 786L893 745Q858 614 806 552T664 489Q603 489 502 530T371 571Q328 571 305 548T258 469Z" />
<glyph unicode="&#xa0;" glyph-name="uni00A0" horiz-adv-x="614" />
<glyph unicode="&#xa7;" glyph-name="section" horiz-adv-x="1294" d="M668 -20Q379 -20 195 174L336 313Q492 168 666 168Q748 168 789 195T831 268V272Q831 317 774 349T561 416Q321 469 220 536T119 715V719Q119 899 338 956Q225 1028 225 1151V1155Q225 1292
332 1373T627 1454Q916 1454 1100 1260L958 1120Q802 1265 629 1266Q549 1266 506 1238T463 1165V1161Q463 1118 518 1087T733 1018Q975 963 1075 896T1176 719V715Q1176 535 956 477Q1069 409 1069 283V279Q1069 142 962 61T668 -20ZM795 569Q865 569 908 601T952
680V684Q952 729 897 762T713 827Q568 864 500 864Q430 864 386 833T342 754V750Q342 705 397 672T582 606Q727 569 795 569Z" />
<glyph unicode="&#xa9;" glyph-name="copyright" horiz-adv-x="1699" d="M1157 -25T848 -25T324 191T109 713V717Q109 1022 326 1240T852 1458T1376 1242T1591 721V717Q1591 412 1374 194ZM848 49Q1131 49 1322 244T1513 717V721Q1513 997 1323 1190T852 1384Q569
1384 378 1189T186 717V713Q186 437 376 243T848 49ZM858 326Q690 326 578 440T465 723V727Q465 895 577 1011T862 1128Q1042 1128 1167 1008L1071 897Q969 989 862 989Q760 989 691 914T621 729V725Q621 619 690 542T862 465Q973 465 1075 561L1174 465Q1040 326
858 326Z" />
<glyph unicode="&#xab;" glyph-name="guillemotleft" horiz-adv-x="1241" d="M944 84L606 532V549L944 999L1133 903L862 543L1133 180L944 84ZM430 84L90 532V549L430 999L618 903L348 543L618 180L430 84Z" />
<glyph unicode="&#xae;" glyph-name="registered" horiz-adv-x="1699" d="M1157 -25T848 -25T324 191T109 713V717Q109 1022 326 1240T852 1458T1376 1242T1591 721V717Q1591 412 1374 194ZM848 49Q1131 49 1322 244T1513 717V721Q1513 997 1323 1190T852 1384Q569
1384 378 1189T186 717V713Q186 437 376 243T848 49ZM551 350V1126H897Q1049 1126 1133 1042Q1196 983 1196 881V877Q1196 787 1148 728T1016 643L1225 350H1049L860 618H856H698V350H551ZM698 748H891Q963 748 1003 780T1044 868V872Q1044 929 1004 961T891 993H698V748Z"
/>
<glyph unicode="&#xb0;" glyph-name="degree" horiz-adv-x="964" d="M616 780T481 780T244 879T141 1112V1116Q141 1249 243 1347T481 1446T719 1348T823 1116V1112Q823 979 720 880ZM399 915T481 915T619 973T676 1112V1116Q676 1196 621 1253T481 1311Q399 1311
344 1254T289 1116V1112Q289 1032 344 974Z" />
<glyph unicode="&#xb6;" glyph-name="paragraph" horiz-adv-x="1140" d="M709 0V500H672Q410 500 246 621T82 965V969Q82 1184 234 1309T637 1434H963V0H709Z" />
<glyph unicode="&#xb7;" glyph-name="uni2219" horiz-adv-x="550" d="M139 487V768H412V487H139Z" />
<glyph unicode="&#xbb;" glyph-name="guillemotright" horiz-adv-x="1241" d="M811 84L623 178L893 539L623 901L811 999L1151 549V532L811 84ZM297 84L109 178L379 539L109 901L297 999L635 549V532L297 84Z" />
<glyph unicode="&#xdf;" glyph-name="germandbls" horiz-adv-x="1269" d="M606 -4V186Q758 190 840 247T922 408V412Q922 508 837 567T606 645V813Q837 926 838 1098V1102Q838 1190 782 1244T631 1298Q529 1298 465 1227T401 1036V0H156V1028Q156 1251 287 1380T643
1509Q846 1509 964 1400T1083 1124V1120Q1083 895 858 770Q1169 666 1169 406V401Q1169 204 1018 96T606 -4Z" />
<glyph unicode="&#xe0;" glyph-name="agrave" horiz-adv-x="1202" d="M1063 0H817V133Q686 -23 467 -23Q305 -23 194 66T82 311V315Q82 489 203 579T520 670Q678 670 819 625V645Q819 758 751 817T553 877Q406 877 244 809L176 1008Q377 1098 588 1098Q824 1098
943 979T1063 641V0ZM823 391V453Q712 496 575 496Q458 496 393 451T328 328V324Q328 250 387 207T537 164Q662 164 742 227T823 391ZM526 1219L276 1454L502 1554L719 1219H526Z" />
<glyph unicode="&#xe1;" glyph-name="aacute" horiz-adv-x="1202" d="M1063 0H817V133Q686 -23 467 -23Q305 -23 194 66T82 311V315Q82 489 203 579T520 670Q678 670 819 625V645Q819 758 751 817T553 877Q406 877 244 809L176 1008Q377 1098 588 1098Q824 1098
943 979T1063 641V0ZM823 391V453Q712 496 575 496Q458 496 393 451T328 328V324Q328 250 387 207T537 164Q662 164 742 227T823 391ZM481 1219L698 1554L924 1454L674 1219H481Z" />
<glyph unicode="&#xe2;" glyph-name="acircumflex" horiz-adv-x="1202" d="M1063 0H817V133Q686 -23 467 -23Q305 -23 194 66T82 311V315Q82 489 203 579T520 670Q678 670 819 625V645Q819 758 751 817T553 877Q406 877 244 809L176 1008Q377 1098 588 1098Q824
1098 943 979T1063 641V0ZM823 391V453Q712 496 575 496Q458 496 393 451T328 328V324Q328 250 387 207T537 164Q662 164 742 227T823 391ZM248 1219L485 1518H715L952 1219H756L598 1356L440 1219H248Z" />
<glyph unicode="&#xe3;" glyph-name="atilde" horiz-adv-x="1202" d="M1063 0H817V133Q686 -23 467 -23Q305 -23 194 66T82 311V315Q82 489 203 579T520 670Q678 670 819 625V645Q819 758 751 817T553 877Q406 877 244 809L176 1008Q377 1098 588 1098Q824 1098
943 979T1063 641V0ZM823 391V453Q712 496 575 496Q458 496 393 451T328 328V324Q328 250 387 207T537 164Q662 164 742 227T823 391ZM352 1198L215 1239Q250 1370 302 1432T444 1495Q505 1495 606 1454T739 1413Q782 1413 804 1435T852 1516L989 1473Q954 1342
902 1281T760 1219Q699 1219 599 1259T465 1300Q422 1300 400 1278T352 1198Z" />
<glyph unicode="&#xe4;" glyph-name="adieresis" horiz-adv-x="1202" d="M1063 0H817V133Q686 -23 467 -23Q305 -23 194 66T82 311V315Q82 489 203 579T520 670Q678 670 819 625V645Q819 758 751 817T553 877Q406 877 244 809L176 1008Q377 1098 588 1098Q824
1098 943 979T1063 641V0ZM823 391V453Q712 496 575 496Q458 496 393 451T328 328V324Q328 250 387 207T537 164Q662 164 742 227T823 391ZM678 1219V1460H930V1219H678ZM270 1219V1460H522V1219H270Z" />
<glyph unicode="&#xe5;" glyph-name="aring" horiz-adv-x="1202" d="M1063 0H817V133Q686 -23 467 -23Q305 -23 194 66T82 311V315Q82 489 203 579T520 670Q678 670 819 625V645Q819 758 751 817T553 877Q406 877 244 809L176 1008Q377 1098 588 1098Q824 1098
943 979T1063 641V0ZM823 391V453Q712 496 575 496Q458 496 393 451T328 328V324Q328 250 387 207T537 164Q662 164 742 227T823 391ZM692 1214T600 1214T438 1281T367 1438V1442Q367 1532 437 1598T600 1665T763 1599T834 1442V1438Q834 1348 763 1281ZM549 1313T600
1313T689 1349T727 1438V1442Q727 1493 689 1530T600 1567T511 1530T473 1442V1438Q473 1387 511 1350Z" />
<glyph unicode="&#xe6;" glyph-name="ae" horiz-adv-x="1949" d="M492 -23Q316 -23 199 65T82 311V315Q82 489 202 579T516 670Q672 670 813 625V645Q813 876 549 877Q406 877 244 809L176 1008Q377 1098 584 1098Q860 1098 963 920Q1104 1104 1341 1104Q1583
1104 1718 937T1853 522Q1853 477 1851 453H1057Q1077 324 1161 251T1366 178Q1528 178 1661 307L1806 178Q1634 -25 1362 -25Q1102 -25 944 160Q725 -23 492 -23ZM1053 616H1610Q1598 741 1526 821T1335 901Q1222 901 1146 822T1053 616ZM532 164Q702 164 852
303Q821 381 813 459Q709 496 571 496Q456 496 392 451T328 328V324Q328 250 386 207T532 164Z" />
<glyph unicode="&#xe7;" glyph-name="ccedilla" horiz-adv-x="1169" d="M565 -338L348 -248L512 -6Q328 41 212 190T96 535V539Q96 772 257 938T657 1104Q919 1104 1090 918L936 752Q807 887 655 887Q522 887 433 787T344 543V539Q344 392 435 291T668 190Q818
190 948 326L1098 178Q1014 86 921 35T698 -23L565 -338Z" />
<glyph unicode="&#xe8;" glyph-name="egrave" horiz-adv-x="1236" d="M651 -25Q413 -25 255 132T96 537V541Q96 777 245 940T625 1104Q871 1104 1007 937T1143 522Q1143 502 1139 453H344Q364 324 448 251T655 178Q815 178 948 307L1094 178Q925 -25 651 -25ZM342
616H897Q885 741 813 821T623 901Q510 901 434 822T342 616ZM535 1219L285 1454L510 1554L727 1219H535Z" />
<glyph unicode="&#xe9;" glyph-name="eacute" horiz-adv-x="1236" d="M651 -25Q413 -25 255 132T96 537V541Q96 777 245 940T625 1104Q871 1104 1007 937T1143 522Q1143 502 1139 453H344Q364 324 448 251T655 178Q815 178 948 307L1094 178Q925 -25 651 -25ZM342
616H897Q885 741 813 821T623 901Q510 901 434 822T342 616ZM510 1219L727 1554L952 1454L702 1219H510Z" />
<glyph unicode="&#xea;" glyph-name="ecircumflex" horiz-adv-x="1236" d="M651 -25Q413 -25 255 132T96 537V541Q96 777 245 940T625 1104Q871 1104 1007 937T1143 522Q1143 502 1139 453H344Q364 324 448 251T655 178Q815 178 948 307L1094 178Q925 -25 651
-25ZM342 616H897Q885 741 813 821T623 901Q510 901 434 822T342 616ZM268 1219L506 1518H735L973 1219H776L618 1356L461 1219H268Z" />
<glyph unicode="&#xeb;" glyph-name="edieresis" horiz-adv-x="1236" d="M651 -25Q413 -25 255 132T96 537V541Q96 777 245 940T625 1104Q871 1104 1007 937T1143 522Q1143 502 1139 453H344Q364 324 448 251T655 178Q815 178 948 307L1094 178Q925 -25 651 -25ZM342
616H897Q885 741 813 821T623 901Q510 901 434 822T342 616ZM698 1219V1460H950V1219H698ZM291 1219V1460H543V1219H291Z" />
<glyph unicode="&#xec;" glyph-name="igrave" horiz-adv-x="585" d="M170 0V1081H418V0H170ZM207 1219L-43 1454L182 1554L399 1219H207Z" />
<glyph unicode="&#xed;" glyph-name="iacute" horiz-adv-x="585" d="M170 0V1081H418V0H170ZM186 1219L403 1554L629 1454L379 1219H186Z" />
<glyph unicode="&#xee;" glyph-name="icircumflex" horiz-adv-x="585" d="M170 0V1081H418V0H170ZM-59 1219L178 1518H408L645 1219H449L291 1356L133 1219H-59Z" />
<glyph unicode="&#xef;" glyph-name="idieresis" horiz-adv-x="585" d="M170 0V1081H418V0H170ZM371 1219V1460H623V1219H371ZM-37 1219V1460H215V1219H-37Z" />
<glyph unicode="&#xf1;" glyph-name="ntilde" horiz-adv-x="1269" d="M156 0V1081H403V913Q532 1103 741 1104Q921 1104 1023 992T1126 688V0H879V614Q879 741 819 810T647 879Q538 879 471 807T403 610V0H156ZM393 1198L256 1239Q291 1370 343 1432T485 1495Q548
1495 649 1454T782 1413Q823 1413 846 1435T895 1516L1032 1473Q997 1342 945 1281T803 1219Q742 1219 641 1259T506 1300Q463 1300 441 1278T393 1198Z" />
<glyph unicode="&#xf2;" glyph-name="ograve" horiz-adv-x="1345" d="M670 -25Q424 -25 260 138T96 535V539Q96 775 262 939T674 1104T1084 940T1249 543V539Q1249 306 1084 141T670 -25ZM674 190Q821 190 911 290T1001 535V539Q1001 684 907 785T670 887Q525
887 435 788T344 543V539Q344 396 438 293T674 190ZM575 1219L326 1454L551 1554L768 1219H575Z" />
<glyph unicode="&#xf3;" glyph-name="oacute" horiz-adv-x="1345" d="M670 -25Q424 -25 260 138T96 535V539Q96 775 262 939T674 1104T1084 940T1249 543V539Q1249 306 1084 141T670 -25ZM674 190Q821 190 911 290T1001 535V539Q1001 684 907 785T670 887Q525
887 435 788T344 543V539Q344 396 438 293T674 190ZM575 1219L793 1554L1018 1454L768 1219H575Z" />
<glyph unicode="&#xf4;" glyph-name="ocircumflex" horiz-adv-x="1345" d="M670 -25Q424 -25 260 138T96 535V539Q96 775 262 939T674 1104T1084 940T1249 543V539Q1249 306 1084 141T670 -25ZM674 190Q821 190 911 290T1001 535V539Q1001 684 907 785T670 887Q525
887 435 788T344 543V539Q344 396 438 293T674 190ZM319 1219L557 1518H786L1024 1219H827L670 1356L512 1219H319Z" />
<glyph unicode="&#xf5;" glyph-name="otilde" horiz-adv-x="1345" d="M670 -25Q424 -25 260 138T96 535V539Q96 775 262 939T674 1104T1084 940T1249 543V539Q1249 306 1084 141T670 -25ZM674 190Q821 190 911 290T1001 535V539Q1001 684 907 785T670 887Q525
887 435 788T344 543V539Q344 396 438 293T674 190ZM422 1198L285 1239Q320 1370 372 1432T514 1495Q575 1495 675 1454T809 1413Q852 1413 874 1435T922 1516L1059 1473Q1024 1342 972 1281T829 1219Q768 1219 668 1259T535 1300Q492 1300 470 1278T422 1198Z"
/>
<glyph unicode="&#xf6;" glyph-name="odieresis" horiz-adv-x="1345" d="M670 -25Q424 -25 260 138T96 535V539Q96 775 262 939T674 1104T1084 940T1249 543V539Q1249 306 1084 141T670 -25ZM674 190Q821 190 911 290T1001 535V539Q1001 684 907 785T670 887Q525
887 435 788T344 543V539Q344 396 438 293T674 190ZM750 1219V1460H1001V1219H750ZM342 1219V1460H594V1219H342Z" />
<glyph unicode="&#xf8;" glyph-name="oslash" horiz-adv-x="1345" d="M670 -25Q500 -25 360 63L291 -10H66L229 172Q96 328 96 535V539Q96 775 262 939T674 1104Q846 1104 983 1016L1055 1094H1280L1114 907Q1249 755 1249 543V539Q1249 306 1084 141T670 -25ZM389
352L836 844Q760 893 670 893Q523 893 431 792T338 543V539Q338 436 389 352ZM674 186Q824 186 916 287T1008 535V539Q1008 639 956 727L508 233Q580 186 674 186Z" />
<glyph unicode="&#xf9;" glyph-name="ugrave" horiz-adv-x="1269" d="M528 -23Q348 -23 246 90T143 393V1081H391V467Q391 340 451 272T623 203Q732 203 799 274T866 471V1081H1114V0H866V168Q737 -23 528 -23ZM563 1217L313 1452L539 1552L756 1217H563Z" />
<glyph unicode="&#xfa;" glyph-name="uacute" horiz-adv-x="1269" d="M528 -23Q348 -23 246 90T143 393V1081H391V467Q391 340 451 272T623 203Q732 203 799 274T866 471V1081H1114V0H866V168Q737 -23 528 -23ZM510 1217L727 1552L952 1452L702 1217H510Z" />
<glyph unicode="&#xfb;" glyph-name="ucircumflex" horiz-adv-x="1269" d="M528 -23Q348 -23 246 90T143 393V1081H391V467Q391 340 451 272T623 203Q732 203 799 274T866 471V1081H1114V0H866V168Q737 -23 528 -23ZM283 1219L520 1518H750L987 1219H791L633 1356L475
1219H283Z" />
<glyph unicode="&#xfc;" glyph-name="udieresis" horiz-adv-x="1269" d="M528 -23Q348 -23 246 90T143 393V1081H391V467Q391 340 451 272T623 203Q732 203 799 274T866 471V1081H1114V0H866V168Q737 -23 528 -23ZM713 1219V1460H965V1219H713ZM305 1219V1460H557V1219H305Z"
/>
<glyph unicode="&#xff;" glyph-name="ydieresis" horiz-adv-x="1220" d="M377 -334Q242 -334 121 -268L205 -84Q281 -125 350 -125Q403 -125 438 -98T504 0L53 1081H317L625 279L905 1081H1163L733 -31Q667 -197 588 -265T377 -334ZM688 1219V1460H940V1219H688ZM281
1219V1460H532V1219H281Z" />
<glyph unicode="&#x131;" glyph-name="dotlessi" horiz-adv-x="585" d="M170 0V1081H418V0H170Z" />
<glyph unicode="&#x153;" glyph-name="oe" horiz-adv-x="2129" d="M657 -25Q424 -25 260 139T96 535V539Q96 772 262 938T668 1104Q803 1104 915 1044T1100 881Q1170 985 1278 1044T1518 1104Q1764 1104 1899 937T2034 522Q2034 502 2030 453H1235Q1255 324 1340
251T1546 178Q1708 178 1841 307L1987 178Q1815 -25 1544 -25Q1405 -25 1288 35T1098 203Q1026 99 910 37T657 -25ZM1233 616H1790Q1776 743 1705 822T1516 901Q1403 901 1326 822T1233 616ZM668 190Q809 190 898 290T987 535V539Q987 684 895 785T664 887Q523
887 434 787T344 543V539Q344 396 436 293T668 190Z" />
<glyph unicode="&#x192;" glyph-name="florin" horiz-adv-x="1079" d="M199 -10Q125 -10 84 0V203Q127 197 166 197Q293 197 315 334L387 729H223V936H422L459 1126Q490 1286 572 1365T817 1444Q926 1444 1006 1421V1212Q924 1232 864 1233Q792 1233 754 1196T698
1075L674 936H934V729H637L559 297Q530 133 445 62T199 -10Z" />
<glyph unicode="&#x2013;" glyph-name="endash" horiz-adv-x="1081" d="M115 510V745H967V510H115Z" />
<glyph unicode="&#x2014;" glyph-name="emdash" horiz-adv-x="1839" d="M115 510V745H1724V510H115Z" />
<glyph unicode="&#x2018;" glyph-name="quoteleft" horiz-adv-x="550" d="M129 864V1104Q129 1270 207 1351T444 1444L471 1337Q283 1302 297 1147H401V864H129Z" />
<glyph unicode="&#x2019;" glyph-name="quoteright" horiz-adv-x="550" d="M106 854L80 961Q268 996 254 1153H150V1434H422V1194Q422 1028 344 947T106 854Z" />
<glyph unicode="&#x201c;" glyph-name="quotedblleft" horiz-adv-x="1026" d="M604 864V1104Q604 1270 682 1351T920 1444L946 1337Q758 1302 770 1147H877V864H604ZM129 864V1104Q129 1270 207 1351T444 1444L471 1337Q283 1302 297 1147H401V864H129Z" />
<glyph unicode="&#x201d;" glyph-name="quotedblright" horiz-adv-x="1026" d="M582 854L555 961Q743 996 729 1153H625V1434H897V1194Q897 1028 820 947T582 854ZM106 854L80 961Q268 996 254 1153H150V1434H422V1194Q422 1028 344 947T106 854Z" />
<glyph unicode="&#x2020;" glyph-name="dagger" horiz-adv-x="839" d="M346 487L365 1051L115 1032V1178L362 1159L338 1434H502L477 1159L725 1178V1032L475 1051L494 487H346Z" />
<glyph unicode="&#x2021;" glyph-name="daggerdbl" horiz-adv-x="880" d="M358 0L383 274L135 256V401L383 383L367 717L383 1051L135 1032V1178L383 1159L358 1434H522L498 1159L745 1178V1032L498 1051L514 717L498 383L745 401V256L498 274L522 0H358Z" />
<glyph unicode="&#x2022;" glyph-name="bullet" horiz-adv-x="1005" d="M502 432Q383 432 298 516T213 719V723Q213 842 299 926T502 1010Q621 1010 707 926T793 723V719Q793 600 708 516T502 432Z" />
<glyph unicode="&#x2026;" glyph-name="ellipsis" horiz-adv-x="1622" d="M1217 0V274H1483V0H1217ZM678 0V274H944V0H678ZM139 0V274H406V0H139Z" />
<glyph unicode="&#x2122;" glyph-name="trademark" horiz-adv-x="1413" d="M698 803V1434H827L1018 1135L1208 1434H1333V803H1217V1251L1022 948H1010L815 1251V803H698ZM248 803V1323H53V1434H563V1323H369V803H248Z" />
<glyph unicode="&#xfb01;" glyph-name="uniFB01" horiz-adv-x="1355" d="M930 1247V1483H1196V1247H930ZM211 0V868H74V1075H211V1153Q211 1333 299 1421Q385 1507 543 1507Q647 1507 743 1479V1270Q663 1297 598 1296Q455 1296 455 1133V1073H741V868H459V0H211ZM940
0V1081H1188V0H940Z" />
<glyph unicode="&#xfb02;" glyph-name="uniFB02" horiz-adv-x="1355" d="M211 0V868H74V1075H211V1153Q211 1333 299 1421Q385 1507 543 1507Q647 1507 743 1479V1270Q663 1297 598 1296Q455 1296 455 1133V1073H741V868H459V0H211ZM940 0V1495H1188V0H940Z" />
</font>
</defs>
</svg>
